<?xml version="1.0" standalone="no"?>
<!DOCTYPE svg PUBLIC "-//W3C//DTD SVG 1.1//EN" "http://www.w3.org/Graphics/SVG/1.1/DTD/svg11.dtd" >
<svg xmlns="http://www.w3.org/2000/svg" xmlns:xlink="http://www.w3.org/1999/xlink" version="1.1">
<metadata>
Created by FontForge 20170731 at Tue Jun 13 11:43:26 2023
 By Aleksey,,,
(c) 1990, 1991, 1992, 1994, 1997, 1998, 2000, 2002, 2004 Adobe Systems Incorporated. All rights reserved.
</metadata>
<defs>
<font id="MinionPro-It" horiz-adv-x="819" >
  <font-face 
    font-family="Minion Pro"
    font-weight="400"
    font-style="italic"
    font-stretch="normal"
    units-per-em="2048"
    panose-1="2 4 5 3 5 3 6 9 2 3"
    ascent="1489"
    descent="-559"
    x-height="920"
    cap-height="1329"
    bbox="-412 -737 3449 2052"
    underline-thickness="102"
    underline-position="-307"
    slope="-12"
    unicode-range="U+0020-FB06"
  />
<missing-glyph horiz-adv-x="1024" 
d="M0 0v1434h1024v-1434h-1024zM512 809l348 522h-696zM573 717l349 -522v1044zM164 102h696l-348 523zM102 1239v-1044l349 522z" />
    <glyph glyph-name="T_h" unicode="Th" horiz-adv-x="2115" 
d="M2019 219l25 -47q-78 -88 -164.5 -142.5t-132.5 -54.5q-77 0 -33 197l111 481q18 78 14 109t-31 31q-64 0 -208 -135.5t-220 -264.5q-49 -193 -80 -379q-74 -13 -145 -39l-16 17q150 668 262 1249q-218 19 -357 19h-137l-207 -994q-11 -50 -15 -79t0 -54t13 -36.5t35 -21
t54 -13t81 -7.5l-12 -55h-567l12 55q49 4 75 7.5t52 13.5t37.5 20.5t25 36.5t21 54t18.5 79l218 994h-148q-125 0 -178 -14t-84 -50q-44 -53 -102 -180h-62q63 204 96 364h43q14 -34 32.5 -42.5t62.5 -8.5h792q135 0 175 7t52 32l9 41q35 19 78.5 35t64.5 16
q13 0 15.5 -14.5t-5.5 -52.5q-39 -167 -104.5 -475t-81.5 -379h4q97 126 200 211t185 129q78 41 131 41q114 0 62 -226l-113 -493q-18 -74 4 -74q16 0 59 27t84 65z" />
    <glyph glyph-name="Tcaron_h" unicode="&#x164;h" horiz-adv-x="2115" 
d="M2019 219l25 -47q-78 -88 -164.5 -142.5t-132.5 -54.5q-77 0 -33 197l111 481q18 78 14 109t-31 31q-64 0 -208 -135.5t-220 -264.5q-49 -193 -80 -379q-74 -13 -145 -39l-16 17q150 668 262 1249q-218 19 -357 19h-137l-207 -994q-11 -50 -15 -79t0 -54t13 -36.5t35 -21
t54 -13t81 -7.5l-12 -55h-567l12 55q49 4 75 7.5t52 13.5t37.5 20.5t25 36.5t21 54t18.5 79l218 994h-148q-125 0 -178 -14t-84 -50q-44 -53 -102 -180h-62q63 204 96 364h43q14 -34 32.5 -42.5t62.5 -8.5h792q135 0 175 7t52 32l9 41q35 19 78.5 35t64.5 16
q13 0 15.5 -14.5t-5.5 -52.5q-39 -167 -104.5 -475t-81.5 -379h4q97 126 200 211t185 129q78 41 131 41q114 0 62 -226l-113 -493q-18 -74 4 -74q16 0 59 27t84 65zM1126 1665l27 -45q-165 -109 -276 -213h-52q-82 98 -213 213l39 45q93 -41 217 -119q150 80 258 119z" />
    <glyph glyph-name="uni021A_h" unicode="&#x21a;h" horiz-adv-x="2115" 
d="M2019 219l25 -47q-78 -88 -164.5 -142.5t-132.5 -54.5q-77 0 -33 197l111 481q18 78 14 109t-31 31q-64 0 -208 -135.5t-220 -264.5q-49 -193 -80 -379q-74 -13 -145 -39l-16 17q150 668 262 1249q-218 19 -357 19h-137l-207 -994q-11 -50 -15 -79t0 -54t13 -36.5t35 -21
t54 -13t81 -7.5l-12 -55h-567l12 55q49 4 75 7.5t52 13.5t37.5 20.5t25 36.5t21 54t18.5 79l218 994h-148q-125 0 -178 -14t-84 -50q-44 -53 -102 -180h-62q63 204 96 364h43q14 -34 32.5 -42.5t62.5 -8.5h792q135 0 175 7t52 32l9 41q35 19 78.5 35t64.5 16
q13 0 15.5 -14.5t-5.5 -52.5q-39 -167 -104.5 -475t-81.5 -379h4q97 126 200 211t185 129q78 41 131 41q114 0 62 -226l-113 -493q-18 -74 4 -74q16 0 59 27t84 65zM569 -59q50 0 85 -37.5t36 -96.5q0 -52 -22.5 -94.5t-60.5 -69.5t-76.5 -43t-81.5 -26l-17 55
q68 27 102.5 53.5t34.5 65.5q0 50 -71 72q-25 7 -25 39q0 35 28 58.5t68 23.5z" />
    <glyph glyph-name="f_b" unicode="fb" horiz-adv-x="1550" 
d="M676 887l-39 -64l-205 -18q-85 -483 -104 -576q-52 -259 -110 -397t-146 -231q-62 -66 -122 -96.5t-106 -30.5q-43 0 -83 26t-40 60q0 20 17 45t41 45q21 18 39 0q23 -23 58 -37t65 -14q51 0 84 41q67 76 143 524q16 99 51 315t55 328h-165l-7 22l60 58h129
q55 275 201 424q62 62 148 104.5t153 42.5q99 0 161 -51q105 51 133 51q24 0 9 -61q-105 -436 -176 -772h4q122 144 242 219.5t198 75.5q68 0 106.5 -61t38.5 -165q0 -169 -88.5 -341t-222.5 -263q-171 -115 -313 -115q-50 0 -95 24.5t-69 63.5q-47 74 -10 261
q139 664 204 946q-31 50 -77 78t-97 28q-102 0 -174.5 -114t-117.5 -375h227zM1268 803q-62 0 -159.5 -77t-209.5 -228q-22 -68 -37 -168q-11 -75 -8 -124.5t24.5 -79t47.5 -41t61 -11.5q61 0 113 30q95 57 167 215.5t72 339.5q0 144 -71 144z" />
    <glyph glyph-name="f_f_b" unicode="ffb" horiz-adv-x="2086" 
d="M1210 887l-39 -66l-200 -16q-12 -71 -28.5 -170.5t-29.5 -173.5t-28 -150q-51 -279 -118 -422t-173 -239q-64 -60 -145.5 -92.5t-143.5 -32.5q-137 0 -219 92q-60 -62 -129 -102.5t-123 -40.5q-42 0 -79.5 22.5t-37.5 54.5q2 17 15 40t30 36q34 39 60 23q65 -45 117 -45
q54 0 88 43q71 91 135 491q26 153 60 361t50 305h-172l-6 22l60 60h133q55 233 180 360q67 70 165 116t189 46q73 0 126 -27.5t81 -68.5q67 67 150.5 106t154.5 39q98 0 160 -51q105 51 133 51q23 0 8 -61q-105 -436 -176 -772h4q124 144 242 219.5t194 75.5
q69 0 109.5 -61.5t40.5 -164.5q0 -167 -90 -341t-223 -265q-168 -113 -312 -113q-50 0 -94.5 24.5t-68.5 63.5q-48 76 -11 261q91 433 205 944q-29 50 -77.5 80t-100.5 30q-50 -1 -91 -26t-78 -80.5t-67.5 -152t-52.5 -232.5h223zM1806 803q-58 0 -157 -77t-211 -228
q-22 -68 -37 -168q-26 -139 11.5 -198.5t111.5 -59.5q55 0 110 32q96 57 170 216t74 339q0 73 -19.5 108.5t-52.5 35.5zM444 887h385q39 205 121 327q-67 113 -205 113q-115 0 -186.5 -101t-114.5 -339zM813 805h-385q-13 -75 -31.5 -187.5t-34.5 -202t-36 -190.5
q-39 -196 -78.5 -309.5t-89.5 -191.5q37 -42 96 -69.5t113 -27.5q127 0 188 78q25 27 44 63.5t51 149t65 291.5q30 175 98 596z" />
    <glyph glyph-name="f_f_h" unicode="ffh" horiz-adv-x="2160" 
d="M2068 221l23 -49q-79 -88 -164 -142.5t-131 -54.5q-77 0 -33 197l111 481q18 78 14.5 109t-30.5 31q-63 0 -207.5 -135t-223.5 -265q-64 -288 -79 -379q-70 -12 -146 -39l-14 17q121 543 268 1280q-32 47 -80.5 76.5t-101.5 29.5q-103 0 -173 -113.5t-114 -377.5h225
l-41 -66l-198 -16q-15 -82 -43 -243.5t-47 -258.5q-35 -186 -80 -314t-93.5 -201.5t-117.5 -137.5q-63 -61 -143 -93t-144 -32q-136 0 -221 92q-57 -61 -125 -102t-123 -41q-43 0 -81 21.5t-38 53.5q0 18 13.5 43.5t31.5 40.5q29 34 60 15q74 -45 117 -45q52 0 88 45
q69 89 135 493q51 315 110 664h-170l-8 22l60 60h133q53 224 182 358q68 71 165 117.5t187 46.5q73 0 127.5 -27t83.5 -63q60 63 146 101t159 38q95 0 162 -53q103 53 127 53q13 -1 14.5 -15.5t-6.5 -43.5l-184 -867h4q102 132 206 220t183 127q75 41 129 41q114 0 62 -226
l-115 -491q-9 -44 -8.5 -59.5t12.5 -16.5q15 -2 59 26.5t86 67.5zM444 887h385q40 208 125 332q-66 108 -202 108q-121 0 -193.5 -102t-114.5 -338zM813 805h-385q-79 -458 -104 -580q-40 -196 -78 -310t-86 -191q34 -41 95 -70t116 -29q119 0 182 80q25 31 43.5 64t53 148
t65.5 292q30 175 98 596z" />
    <glyph glyph-name="f_f_j" unicode="ffj" horiz-adv-x="1564" 
d="M150 887h133q25 105 66 193.5t120 168.5q67 68 163 114t189 46q73 0 127.5 -27t81.5 -63q139 139 305 139q56 0 99.5 -15.5t66.5 -38t34 -44.5t11 -39q0 -30 -19.5 -56t-51.5 -38q-65 -25 -80 28q-16 62 -45.5 93.5t-81.5 31.5q-204 0 -289 -493h242q122 0 260 26
q19 -12 21.5 -40t-11.5 -105q-33 -153 -117 -582q-79 -379 -244 -534q-68 -67 -126.5 -98t-92.5 -31q-32 0 -60 18t-28 45q0 22 15.5 48t35.5 42q22 22 44 9q53 -29 98 -29q44 0 78.5 51.5t62.5 171.5q36 150 162 801q16 83 1 105t-93 22h-260q-78 -440 -88 -490
q-51 -286 -116 -428.5t-173 -240.5q-62 -58 -141.5 -91.5t-137.5 -33.5q-132 0 -229 94q-55 -61 -125.5 -102t-126.5 -41q-42 0 -77.5 19.5t-35.5 49.5q0 19 14 43t31 39q29 34 60 19q67 -43 112 -43q52 0 89 47q65 78 131 491q29 175 66.5 397t45.5 273h-168l-6 18z
M436 887h385q47 215 131 336q-31 47 -84.5 75.5t-113.5 28.5q-122 0 -197.5 -102t-120.5 -338zM807 809h-385q-16 -87 -48.5 -279t-54.5 -303q-37 -197 -76 -314t-87 -192q34 -41 93 -67.5t118 -26.5q69 0 112 19.5t76 60.5q84 93 150 479q27 159 60 364t42 259z" />
    <glyph glyph-name="f_f_k" unicode="ffk" horiz-adv-x="2060" 
d="M1432 483q53 64 176 187q242 250 358 250q40 0 63 -19.5t23 -44.5q0 -18 -12.5 -42t-28.5 -40q-20 -17 -33 -10q-36 16 -77 16q-64 0 -136 -53t-129 -119q52 -180 166 -399q29 -56 47 -78t33 -22q18 0 50.5 26t68.5 70l35 -43q-66 -103 -125 -145t-101 -42
q-35 0 -66.5 29t-68.5 107q-83 176 -155 381q-94 -101 -115 -138q-41 -182 -68 -340q-91 -17 -147 -39l-12 13q172 767 280 1292q-31 43 -78 69.5t-102 26.5q-51 0 -91.5 -23.5t-77.5 -78t-67.5 -151t-54.5 -236.5h225l-41 -66l-198 -16q-12 -71 -28.5 -171t-29.5 -174
t-28 -149q-37 -192 -80.5 -319t-91.5 -202t-117 -138q-64 -60 -147.5 -93.5t-143.5 -33.5q-136 0 -223 92q-56 -61 -125 -102t-123 -41q-43 0 -80 20.5t-37 52.5q0 17 15.5 40.5t32.5 39.5q29 34 57 17q71 -43 115 -43q51 0 90 45q68 89 133 491q27 161 61 370t49 298h-170
l-6 22l58 60h133q51 222 184 360q67 70 165 116t187 46q74 0 127 -27t82 -63q64 61 150 100t153 39q45 0 90.5 -15t73.5 -38q103 53 127 53q13 0 15 -13.5t-5 -41.5q-44 -194 -204 -920zM446 887h383q44 215 123 334q-69 104 -202 104q-118 0 -190 -100.5t-114 -337.5z
M813 805h-383q-84 -485 -102 -578q-40 -199 -78 -314t-86 -194q34 -40 94 -67t115 -27q119 0 184 82q19 21 33 44.5t35 74.5t43.5 144t44.5 225q57 326 100 610z" />
    <glyph glyph-name="f_f_t" unicode="fft" horiz-adv-x="1691" 
d="M1757 887l-53 -72l-207 -10l-119 -563q-26 -123 13 -123q26 0 86 40t98 79l27 -48q-58 -72 -157.5 -144.5t-168.5 -72.5q-27 0 -43.5 24t-21 84.5t19.5 164.5l121 559h-381q-87 -476 -94 -512q-33 -181 -75 -303.5t-89 -196.5t-117 -139q-65 -62 -148 -95.5t-147 -33.5
q-138 0 -219 90q-59 -61 -127.5 -101t-122.5 -40q-42 0 -79.5 24t-37.5 56q2 19 15 44t30 40q34 30 60 12q65 -45 117 -45q53 0 90 43q69 90 135 487q23 139 57 353t51 317h-170l-8 20l60 62h135q48 219 178 352q69 72 169 121t189 49q71 0 122 -27.5t79 -68.5
q62 67 142 106t151 39q53 0 90 -28.5t37 -59.5q0 -23 -16.5 -49t-36.5 -41q-31 -20 -48 0q-69 76 -147 76q-68 2 -119.5 -109t-91.5 -360h385l39 160l154 129l18 -15l-63 -274h239zM444 887h383q38 205 117 327q-29 51 -82.5 81t-116.5 30q-116 0 -189.5 -106t-111.5 -332z
M811 805h-383q-13 -75 -45 -263.5t-57 -316.5q-37 -196 -75.5 -311t-88.5 -193q30 -40 87 -68t113 -28q126 0 187 78q90 94 160 490q31 170 102 612z" />
    <glyph glyph-name="f_h" unicode="fh" horiz-adv-x="1615" 
d="M1526 221l26 -49q-81 -88 -166 -142.5t-131 -54.5q-76 0 -32 197l110 477q17 78 13.5 111t-31.5 33q-64 0 -206 -134t-220 -264q-69 -312 -82 -381q-71 -13 -145 -39l-15 17q106 462 268 1282q-29 45 -78.5 71.5t-103.5 26.5q-68 0 -119 -43t-94.5 -151.5t-75.5 -290.5
h228l-41 -62l-201 -20q-78 -457 -104 -580q-54 -256 -114 -394.5t-149 -231.5q-117 -125 -229 -125q-43 0 -82 26t-39 60q0 19 16.5 44.5t39.5 45.5q20 18 41 0q23 -23 58 -39.5t62 -16.5q53 0 86 41q37 39 72 156t76 361q12 71 108 657h-168l-6 20l60 58h131
q51 266 203 420q63 66 149 108.5t158 42.5q95 0 157 -51q105 51 127 51q25 0 13 -59l-185 -862h4q101 129 202.5 213.5t182.5 128.5q75 41 134 41q111 0 59 -226l-115 -493q-5 -22 -6.5 -36.5t-1 -23t3.5 -11.5t8 -3q16 0 59.5 28t84.5 66z" />
    <glyph glyph-name="f_j" unicode="fj" horiz-adv-x="1026" 
d="M156 887h125q66 296 223 440q62 58 139.5 94.5t157.5 36.5q55 0 96.5 -15t62 -37.5t30 -43.5t9.5 -39q0 -32 -18.5 -58.5t-50.5 -33.5q-67 -24 -76 22q-27 129 -125 129q-202 0 -289 -495h228q172 0 268 26q39 0 8 -161q-85 -423 -113 -566q-79 -380 -241 -532
q-69 -66 -128 -98.5t-91 -32.5t-61 18.5t-29 46.5q0 20 15.5 47.5t35.5 45.5q24 21 45 8q56 -31 100 -31q45 0 76 48t61 173q34 134 162 795q19 85 5.5 110t-87.5 25h-270q-73 -402 -107 -555q-59 -276 -114.5 -414.5t-141.5 -230.5q-66 -71 -129 -103t-110 -32
q-43 0 -79.5 24t-35.5 56q0 42 57 92q21 15 39 0q52 -45 115 -45q56 0 88 37q70 74 146 520q67 386 112 651h-160l-6 20z" />
    <glyph glyph-name="f_k" unicode="fk" horiz-adv-x="1529" 
d="M895 487q59 68 174 187q113 113 202.5 179.5t158.5 66.5q39 0 61 -19.5t22 -44.5q0 -19 -10.5 -42t-27.5 -38q-18 -18 -33 -12q-28 14 -78 14q-64 0 -137 -52.5t-131 -117.5q28 -90 79 -209t91 -190q28 -56 46 -78t34 -22q38 0 118 96l35 -43q-66 -103 -124.5 -145
t-100.5 -42q-35 0 -66.5 29t-68.5 107q-96 203 -160 381q-94 -101 -111 -134q-34 -151 -67 -344q-93 -18 -148 -39l-12 13q189 839 283 1290q-31 44 -81.5 72t-101.5 28q-102 0 -174.5 -113.5t-120.5 -377.5h226l-41 -66l-201 -20q-14 -76 -33.5 -190t-35 -200t-35.5 -186
q-53 -257 -112 -394t-148 -230q-62 -66 -123 -96.5t-107 -30.5q-43 0 -83 26t-40 60q0 20 16 45.5t40 44.5q20 15 41 0q25 -22 59 -36.5t61 -14.5q53 0 84 39q74 85 150 514q76 460 110 653h-170l-6 20l62 62h131q54 273 203 422q64 64 150 106.5t155 42.5q100 0 162 -51
l28 14t37 18t31.5 12.5t29.5 6.5q26 0 11 -57q-42 -188 -203 -914z" />
    <glyph glyph-name="f_t" unicode="ft" horiz-adv-x="1161" 
d="M1225 887l-56 -72l-204 -10l-119 -563q-28 -121 10 -121q26 0 85 38t97 77l29 -46q-61 -74 -158.5 -145.5t-169.5 -71.5q-26 0 -42 24t-20 84.5t21 164.5l119 559h-385q-15 -80 -33.5 -188t-33.5 -190.5t-33 -170.5q-56 -278 -112 -419t-142 -232q-63 -67 -126 -99
t-108 -32q-44 0 -81 24.5t-37 57.5q0 42 59 94q19 20 39 0q62 -49 119 -49q52 0 86 39q63 67 139 520q16 94 51 311.5t55 333.5h-161l-7 22l60 60h125q53 271 194 418q65 68 142.5 110.5t148.5 42.5q55 0 92 -30.5t35 -61.5q0 -22 -17 -49t-38 -41q-27 -21 -45 0
q-73 76 -144 76q-69 0 -120 -108t-93 -357h390l38 164l154 129l19 -15l-64 -278h242z" />
    <glyph glyph-name="longs_b" unicode="&#x17f;b" horiz-adv-x="1460" 
d="M838 627h4q124 143 241.5 218t192.5 75q68 0 107.5 -61t39.5 -163q0 -170 -87 -344t-220 -264q-171 -113 -309 -113q-52 0 -98 24.5t-70 63.5q-47 79 -8 261q27 134 95 448t108 506q-25 44 -68.5 72t-89.5 28t-83.5 -27t-76 -95t-73.5 -198t-66 -323q-67 -410 -96 -559
q-44 -232 -100.5 -359t-145.5 -218q-120 -125 -234 -125q-45 0 -85 28.5t-40 61.5q0 20 16 44.5t40 43.5q23 20 41 2q26 -23 61.5 -39t65.5 -16q49 0 90 41q68 63 137 520q65 422 86 545q38 211 93 355t136 236q57 71 139.5 116.5t153.5 45.5q91 0 148 -49q82 49 121 49
q26 0 10 -59q-111 -464 -176 -772zM1184 803q-58 0 -158 -79t-209 -226q-23 -83 -37 -166q-26 -138 13 -200t114 -62q52 0 107 32q95 56 167 216t72 341q0 144 -69 144z" />
    <glyph glyph-name="longs_h" unicode="&#x17f;h" horiz-adv-x="1538" 
d="M1448 221l25 -49q-79 -88 -164.5 -142.5t-132.5 -54.5q-77 0 -33 197l110 481q19 78 15.5 110t-31.5 32q-64 0 -205 -135.5t-217 -266.5q-42 -160 -82 -379q-68 -12 -145 -39l-15 17q147 646 271 1284q-24 46 -69.5 74t-92.5 28q-46 0 -85 -27t-79 -94.5t-76 -198.5
t-65 -323q-52 -343 -96 -559q-44 -233 -99.5 -359.5t-144.5 -215.5q-65 -68 -127.5 -97.5t-108.5 -29.5q-45 0 -85.5 28.5t-39.5 61.5q0 42 54 86q24 21 43 2q24 -22 60.5 -37.5t66.5 -15.5q48 0 90 39q68 68 137 522q75 489 84 542q71 414 231 594q56 69 143.5 115.5
t157.5 46.5q91 0 148 -49q30 20 65.5 34.5t53.5 14.5q13 0 15.5 -13t-3.5 -42l-184 -864h4q99 128 200 212.5t181 127.5q75 41 129 41q113 0 61 -226l-113 -493q-17 -71 5 -74q16 0 59 28t84 66z" />
    <glyph glyph-name="longs_i" unicode="&#x17f;i" horiz-adv-x="1011" 
d="M733 1458q102 0 148.5 -44.5t44.5 -88.5q0 -28 -18.5 -52.5t-53.5 -37.5q-34 -12 -50 -6t-22 31q-9 56 -39 87t-77 31q-33 -1 -62 -16.5t-60 -56.5t-58 -108.5t-54.5 -177.5t-50.5 -257q-79 -471 -107 -606q-46 -225 -100 -345.5t-143 -209.5q-67 -68 -128.5 -97.5
t-107.5 -29.5q-45 0 -85.5 29t-39.5 61q0 39 54 86q24 20 43 4q25 -24 61 -39.5t66 -15.5q52 0 90 41q70 70 139 507q73 455 90 547q74 427 233 609q62 71 138 113t149 42zM918 223l24 -43q-55 -68 -151 -136.5t-148 -68.5q-78 0 -27 201l129 524q18 66 0 66q-12 0 -54 -26
t-87 -62l-24 49q83 80 174 136.5t135 56.5q63 0 22 -162l-143 -563q-16 -68 4 -68q17 0 60.5 29.5t85.5 66.5z" />
    <glyph glyph-name="longs_k" unicode="&#x17f;k" horiz-adv-x="1456" 
d="M819 489l4 -2q53 64 174 185q244 248 359 248q39 0 61.5 -19.5t22.5 -44.5q0 -19 -11 -42t-28 -38q-15 -16 -33 -12q-26 16 -76 16q-64 0 -137.5 -52.5t-130.5 -115.5q27 -89 77.5 -207.5t90.5 -195.5q30 -58 46.5 -79t33.5 -21q36 0 117 94l34 -41
q-65 -102 -123.5 -144.5t-99.5 -42.5q-35 0 -66.5 29t-68.5 107q-84 178 -156 383q-86 -89 -114 -138q-40 -176 -68 -342q-86 -16 -147 -39l-13 13q188 838 283 1294q-24 43 -67 69.5t-93 26.5q-39 0 -71 -16t-66 -59t-63 -114.5t-57.5 -186t-53.5 -269.5q-64 -392 -98 -565
q-44 -227 -99.5 -351.5t-144.5 -215.5q-65 -68 -127.5 -97.5t-108.5 -29.5q-45 0 -85 28.5t-40 61.5q0 42 54 86q24 21 43 2q24 -22 59.5 -37.5t65.5 -15.5q51 0 90 39q68 64 139 522q59 389 88 538q38 215 94.5 359t139.5 237q60 72 141.5 118t148.5 46q99 0 156 -49
q78 49 119 49q13 0 15.5 -12t-3.5 -41q-63 -285 -207 -916z" />
    <glyph glyph-name="longs_l" unicode="&#x17f;l" horiz-adv-x="1007" 
d="M940 240l29 -45q-73 -91 -168.5 -155.5t-145.5 -64.5q-83 0 -30 248q77 361 221 1051q-29 52 -71.5 78t-86.5 26q-47 0 -86.5 -26.5t-80 -92.5t-75.5 -193.5t-63 -313.5q-61 -386 -98 -574q-46 -234 -100.5 -359.5t-143.5 -215.5q-66 -67 -128.5 -98t-107.5 -31t-86 28.5
t-41 61.5q0 38 56 86q25 20 43 2q24 -24 59.5 -39.5t67.5 -15.5q47 0 88 41q67 63 137 514q74 474 84 530q38 224 95 372.5t141 243.5q57 69 139.5 114.5t150.5 45.5q95 0 150 -51q81 51 121 51q24 0 12 -55q-193 -912 -254 -1198q-15 -78 8 -78q19 0 69.5 34.5t94.5 78.5z
" />
    <glyph glyph-name="longs_longs" unicode="&#x17f;&#x17f;" horiz-adv-x="987" 
d="M1235 1458q48 0 84.5 -29t34.5 -59q-2 -21 -17.5 -46t-36.5 -40q-12 -9 -27 -8t-26 12q-25 28 -58.5 46t-62.5 18q-45 0 -78.5 -42.5t-70 -172.5t-72.5 -363q-67 -431 -88 -532q-46 -240 -108 -372.5t-166 -227.5q-63 -58 -139 -87.5t-138 -29.5q-129 0 -213 94
q-60 -64 -128.5 -104.5t-127.5 -40.5q-43 0 -80.5 23t-38.5 54q0 19 14.5 41.5t31.5 38.5q37 29 53 19q63 -51 119 -51q45 0 90 39q73 73 141 512q52 355 74 481q37 227 99.5 381t160.5 252q60 60 140.5 102.5t160.5 42.5q72 0 125 -25t80 -65q143 139 268 139zM332 -375
q118 0 174 72q87 99 153 510q10 61 80 508q58 357 154 502q-33 50 -85 80t-108 30q-55 0 -99.5 -28t-88.5 -99t-81.5 -206t-68.5 -335q-6 -39 -23 -154.5t-30 -194.5t-30 -163q-58 -294 -148 -426q29 -39 86 -67.5t115 -28.5z" />
    <glyph glyph-name="longs_longs_i" unicode="&#x17f;&#x17f;i" horiz-adv-x="1538" 
d="M1249 1458q98 0 146.5 -46t46.5 -89q2 -28 -16.5 -52.5t-53.5 -37.5q-34 -12 -50 -6.5t-22 30.5q-30 119 -118 119q-60 -1 -106.5 -55.5t-90 -192t-80.5 -368.5q-66 -413 -86 -508q-44 -240 -109.5 -377t-172.5 -235q-63 -59 -135 -87t-134 -28q-129 0 -213 94
q-58 -64 -126.5 -104.5t-127.5 -40.5q-42 0 -80.5 24.5t-39.5 57.5q0 17 14 40.5t31 38.5q32 28 51 17q66 -53 123 -53q47 0 86 39q68 64 141 507q80 472 82 486q73 444 262 633q57 59 139.5 102t161.5 43q134 0 199 -92q59 61 133 101t145 40zM330 -377q112 0 172 76
q95 109 160 514q41 239 73 467q56 356 164 534q-71 115 -186 115q-43 0 -79.5 -17.5t-75 -64.5t-71 -124t-64.5 -201.5t-58 -292.5q-41 -253 -84 -477q-56 -290 -150 -431q29 -40 85.5 -69t113.5 -29zM1440 225l26 -45q-55 -68 -150.5 -136.5t-146.5 -68.5q-77 0 -28 201
l131 524q14 64 -2 64q-14 0 -56 -25t-86 -61l-24 49q83 80 174 136.5t133 56.5q66 0 25 -158l-142 -567q-19 -68 2 -68q17 0 60 30t84 68z" />
    <glyph glyph-name="longs_longs_l" unicode="&#x17f;&#x17f;l" horiz-adv-x="1546" 
d="M1468 240l29 -45q-75 -92 -169 -156t-144 -64q-84 0 -31 248q42 195 221 1049q-28 51 -71.5 79t-94.5 27q-50 0 -90 -27t-79.5 -96t-74 -200.5t-63.5 -327.5q-52 -339 -84 -498q-42 -231 -104.5 -362.5t-167.5 -224.5q-63 -59 -137 -88t-136 -29q-130 0 -217 94
q-56 -64 -125 -104.5t-129 -40.5q-43 0 -81 25t-39 57q0 19 14 43t31 39q36 28 53 16q64 -53 123 -53q49 0 88 39q71 66 137 512q68 443 74 475q37 231 99.5 387t160.5 254q58 58 142 99.5t165 41.5q70 0 124 -26.5t85 -65.5q54 60 135 100.5t152 40.5q89 0 151 -53
q26 20 64 36.5t57 16.5q23 0 14 -53q-47 -219 -132.5 -625.5t-121.5 -574.5q-16 -80 7 -80q20 0 72.5 36t92.5 79zM709 1327q-44 0 -80.5 -16t-76 -61.5t-72 -122.5t-64.5 -204t-58 -300q-45 -292 -79 -465q-34 -169 -67.5 -270.5t-76.5 -166.5q32 -41 85.5 -68.5
t117.5 -27.5q109 0 170 78q91 104 149 481q36 215 76 475q59 376 166 558q-33 50 -83.5 80t-106.5 30z" />
    <glyph glyph-name="f_f" unicode="ff" horiz-adv-x="1085" 
d="M156 887h133q53 231 180 358q69 70 170 117t197 47q68 0 120 -26t78 -60q64 61 137.5 98t135.5 37q49 0 84.5 -27.5t33.5 -58.5q0 -19 -14 -43.5t-37 -42.5q-28 -22 -55 2q-56 62 -125 62q-46 0 -78.5 -35t-64.5 -138.5t-62 -289.5h228l-39 -62l-203 -16
q-15 -81 -43 -242t-47 -258q-35 -187 -77.5 -312.5t-91.5 -202t-120 -142.5q-64 -60 -146.5 -93.5t-142.5 -33.5q-142 0 -231 86q-55 -59 -120 -98t-120 -39q-45 0 -83 22.5t-38 54.5q0 17 15 41t32 39q34 34 58 17q59 -45 117 -45q53 0 86 45q71 86 141 489q18 112 41 252
t38.5 236.5t30.5 183.5h-170l-6 22zM446 887h385q38 213 123 336q-28 45 -82.5 72.5t-115.5 27.5q-69 0 -119.5 -27t-86.5 -85t-60 -134.5t-44 -189.5zM815 809h-385q-82 -475 -102 -578q-38 -195 -78.5 -313t-91.5 -201q30 -38 91.5 -64t117.5 -26q129 0 190 78
q92 107 156 490q27 157 62.5 372.5t39.5 241.5z" />
    <glyph glyph-name="f_f_i" unicode="ffi" horiz-adv-x="1619" 
d="M1522 227l26 -45q-53 -69 -153 -138t-154 -69q-82 0 -33 213q49 194 113 484q21 91 5 113t-97 22h-254q-12 -65 -29 -167t-30 -175t-29 -148q-53 -283 -122 -432t-185 -247q-58 -53 -132.5 -84t-134.5 -31q-132 0 -219 92q-49 -58 -121 -99.5t-131 -41.5q-46 0 -84 22.5
t-37 54.5q0 38 50 84q31 31 55 13q62 -45 117 -45q54 0 88 43q67 85 133 495q27 161 61 370t49 298h-170l-6 18l58 60h133q53 223 190 362q65 69 161 114.5t187 45.5q73 0 127.5 -27t81.5 -63q136 139 307 139q56 0 99.5 -15.5t65.5 -39t33 -45t11 -39.5q0 -27 -17.5 -51
t-49.5 -37q-72 -28 -84 26q-32 129 -129 129q-202 0 -285 -499h238q169 0 258 28q52 3 14 -149q-9 -36 -131 -541q-22 -100 2 -100q18 0 67 32t87 70zM446 887h383q44 211 129 336q-29 48 -82.5 77t-113.5 29q-122 0 -197 -103t-119 -339zM817 809h-385q-19 -105 -51 -291.5
t-51 -290.5q-36 -196 -73.5 -310t-86.5 -196q29 -41 86.5 -67.5t118.5 -26.5q120 0 180 80q94 108 156 473q26 148 59.5 351.5t46.5 277.5z" />
    <glyph glyph-name="f_f_l" unicode="ffl" horiz-adv-x="1624" 
d="M1217 887l-43 -64l-199 -18q-11 -64 -28.5 -166t-30.5 -174.5t-29 -149.5q-54 -288 -122.5 -435.5t-184.5 -244.5q-58 -52 -132 -82t-133 -30q-135 0 -227 92q-52 -59 -122.5 -100t-129.5 -41q-46 0 -83.5 21.5t-37.5 53.5q0 18 14.5 43t34.5 43q32 29 58 11
q63 -45 115 -45q59 0 92 45q69 83 137 495q19 116 54.5 337.5t53.5 330.5h-170l-6 20l58 58h133q50 224 184 360q66 69 163.5 115.5t190.5 46.5q136 0 211 -92q61 61 154 101t166 40q41 0 85.5 -15t67.5 -34q92 49 117 49q26 0 6 -80q-145 -653 -243 -1165q-17 -90 10 -90
q15 0 65.5 35.5t87.5 74.5l31 -45q-71 -87 -165 -150t-144 -63q-85 0 -35 244q68 317 223 1067q-61 88 -176 88q-222 0 -299 -487h228zM446 887h385q43 216 125 336q-27 45 -82 74.5t-118 29.5q-57 0 -102 -21.5t-84.5 -71.5t-70 -136t-53.5 -211zM817 809h-385
q-20 -109 -51.5 -295t-50.5 -289q-66 -357 -162 -501q33 -42 91 -69.5t118 -27.5q123 0 186 80q88 101 150 473q29 168 66 394t38 235z" />
    <glyph glyph-name="longs_t" unicode="&#x17f;t" horiz-adv-x="1085" 
d="M739 1458q79 0 121.5 -37.5t40.5 -74.5q-2 -26 -19 -50.5t-48 -38.5q-35 -21 -50 13q-18 41 -53 67.5t-78 26.5q-39 -1 -71 -25t-68 -87.5t-70.5 -192.5t-64.5 -320q-74 -442 -103 -583q-46 -225 -100.5 -347t-142.5 -210q-65 -67 -127 -96t-107 -29t-86 28t-41 60
q0 40 54 84q23 21 43 4q23 -23 59.5 -38t67.5 -15q47 0 88 41q69 69 139 509q15 89 42 259.5t42 257.5q81 451 244 632q60 71 138 116.5t150 45.5zM1157 883l-53 -70l-205 -10l-119 -559q-28 -123 11 -123q26 0 85.5 39t96.5 80l28 -47q-62 -75 -158.5 -146.5t-168.5 -71.5
q-26 0 -41.5 23.5t-19.5 83.5t20 164l119 557h-154l-4 18l51 62h125l33 133l153 125l21 -13l-59 -245h239z" />
    <glyph glyph-name="f_i" unicode="fi" horiz-adv-x="1087" 
d="M983 229l31 -43q-51 -66 -152 -138.5t-160 -72.5q-81 0 -34 201q30 122 116 498q22 89 7.5 112t-91.5 23h-268q-76 -433 -104 -559q-60 -274 -115.5 -412t-142.5 -229q-64 -71 -127.5 -103t-110.5 -32q-44 0 -81 24.5t-36 57.5q0 41 58 92q22 16 41 0q52 -45 116 -45
q54 0 88 39q69 69 148 516q16 96 52 315.5t56 335.5h-161l-7 22l60 56h125q62 292 221 438q63 58 140.5 95.5t156.5 37.5q55 0 96.5 -14.5t62 -37t30.5 -43t10 -38.5q0 -32 -20.5 -59.5t-53.5 -34.5q-61 -19 -70 24q-28 123 -127 123q-106 0 -175.5 -126t-112.5 -365h229
q160 0 270 26q20 0 22.5 -39.5t-14.5 -107.5q-40 -164 -133 -549q-8 -36 -9.5 -56t2.5 -28t13 -8q15 0 65.5 34t88.5 70z" />
    <glyph glyph-name="f_l" unicode="fl" horiz-adv-x="1075" 
d="M676 887l-41 -64l-203 -18q-11 -60 -45 -256.5t-61 -333.5q-50 -249 -107 -384t-147 -228q-62 -66 -125.5 -97.5t-110.5 -31.5q-41 0 -78 26t-37 60q0 21 16.5 45.5t41.5 42.5q20 15 41 0q22 -21 54.5 -34t62.5 -13q54 0 90 41q65 69 143 524q22 131 54 334t50 307h-163
l-7 22l60 58h127q45 265 198 418q67 67 157.5 110t166.5 43q49 0 89.5 -14.5t62.5 -36.5q86 51 114 51q25 0 11 -59q-134 -616 -250 -1194q-6 -32 -6 -50t3.5 -24t12.5 -6q18 0 69.5 37t88.5 78l28 -45q-65 -89 -162 -154.5t-147 -65.5q-84 0 -29 261q31 149 101 482
t119 568q-21 33 -65.5 60.5t-100.5 27.5q-65 0 -115.5 -35.5t-86 -103.5t-59.5 -152t-42 -196h227z" />
    <glyph glyph-name=".notdef" horiz-adv-x="1024" 
d="M0 0v1434h1024v-1434h-1024zM512 809l348 522h-696zM573 717l349 -522v1044zM164 102h696l-348 523zM102 1239v-1044l349 522z" />
    <glyph glyph-name=".null" horiz-adv-x="0" 
 />
    <glyph glyph-name="nonmarkingreturn" horiz-adv-x="682" 
 />
    <glyph glyph-name="space" unicode=" " horiz-adv-x="468" 
 />
    <glyph glyph-name="exclam" unicode="!" horiz-adv-x="530" 
d="M457 1360q55 0 78.5 -14.5t17.5 -45.5q-2 -12 -43 -161q-36 -124 -103.5 -369t-103.5 -369q-9 -11 -34 -11t-29 11q42 380 75 736q4 40 19 166q6 31 35 44t88 13zM203 -25q-46 0 -75.5 32t-29.5 81q0 58 35.5 96.5t89.5 38.5q46 0 76.5 -33t30.5 -84q0 -60 -37.5 -95.5
t-89.5 -35.5z" />
    <glyph glyph-name="quotedbl" unicode="&#x22;" horiz-adv-x="706" 
d="M479 1454l17 -14q-21 -70 -75.5 -212.5t-96.5 -223.5l-62 -27q63 344 66 432zM797 1454l16 -14q-21 -71 -76 -213.5t-96 -222.5l-61 -27q62 344 65 432z" />
    <glyph glyph-name="numbersign" unicode="#" horiz-adv-x="976" 
d="M991 932l-22 -121h-189l-84 -285h170l-24 -118h-180l-107 -365h-82l105 365h-226l-106 -365h-82l106 365h-196l26 118h205l84 285h-188l26 121h199l94 321h82l-94 -321h223l96 321h82l-94 -321h176zM698 811h-225l-84 -285h225z" />
    <glyph glyph-name="dollar" unicode="$" horiz-adv-x="976" 
d="M938 928l-59 -6q-12 238 -185 280l-90 -471l45 -29q54 -34 91.5 -64.5t72 -70.5t51.5 -88.5t17 -105.5q0 -109 -59.5 -192.5t-152.5 -126.5t-204 -48l-35 -172h-72l35 172q-109 7 -192.5 45.5t-116.5 77.5q0 142 -4 281l57 6q7 -45 18 -86t32.5 -86.5t50 -79.5t72 -59
t96.5 -31l98 518l-43 29q-107 64 -166.5 138.5t-58.5 172.5q0 104 56.5 182t145.5 116.5t197 39.5l31 155h73l-30 -157q89 -4 241 -78q-5 -57 -12 -262zM539 768l84 438q-118 -3 -179 -67.5t-61 -151.5q0 -67 38 -118.5t118 -100.5zM569 557l-90 -485q113 9 175.5 78
t62.5 167q0 77 -34 129.5t-114 110.5z" />
    <glyph glyph-name="percent" unicode="%" horiz-adv-x="1538" 
d="M1354 1292l-1012 -1347l-57 49l1009 1345zM776 1020q0 -78 -26.5 -158.5t-72 -147.5t-115 -110t-148.5 -43q-112 0 -169 80.5t-57 198.5q0 105 43.5 209.5t129 177.5t190.5 73q76 0 128.5 -40.5t74.5 -102t22 -137.5zM639 1077q0 162 -98 162q-53 0 -96.5 -49.5
t-67.5 -122t-36.5 -142t-12.5 -122.5q0 -182 96 -182q56 0 100.5 53.5t67.5 131.5t35 149t12 122zM1450 436q0 -105 -44.5 -210t-130.5 -178t-190 -73q-110 0 -167.5 80.5t-57.5 198.5q0 105 44 210t129.5 178t189.5 73q76 0 129 -40.5t75.5 -101.5t22.5 -137zM1311 492
q0 163 -97 163q-54 0 -98 -49.5t-68 -122t-36.5 -142.5t-12.5 -124q0 -182 99 -182q55 0 99 54t67.5 132t35 149t11.5 122z" />
    <glyph glyph-name="ampersand" unicode="&#x26;" horiz-adv-x="1560" 
d="M1481 831h63q6 -37 6 -122q0 -63 -9 -109.5t-21.5 -70.5t-29 -38.5t-28.5 -18t-24 -3.5q-38 0 -99 45q-9 6 -58.5 42.5t-72.5 51.5q-68 -260 -194 -405q-196 -228 -453 -228q-88 0 -165.5 31.5t-136 89t-92.5 146t-34 196.5q0 234 168 408q56 58 124.5 98.5t119.5 40.5
q53 0 85 -40.5t34 -102.5q0 -20 -7 -54l5 -2q51 48 89.5 90t80.5 99t65 118t23 121q0 26 -13 72q-5 30 19.5 58t60.5 28q38 0 60 -31.5t22 -83.5q0 -78 -60 -182t-180 -223q-127 -125 -271.5 -234.5t-272.5 -185.5q24 -148 123 -231.5t235 -83.5q179 0 312.5 145.5
t191.5 388.5q-42 27 -59.5 37.5t-47.5 21.5t-57 11q-43 0 -66.5 -26t-23.5 -66q0 -58 20 -94q15 -26 15 -35q-3 -17 -28 -29t-48 -12q-34 0 -59 32.5t-25 73.5q0 94 123 185q40 30 92.5 51.5t79.5 21.5q104 0 321 -172q38 -30 58 -30q36 0 39 210zM467 881q-66 0 -128.5 -99
t-62.5 -243q0 -17 3 -35q52 30 137.5 90.5t120.5 95.5q8 31 8 72q2 51 -19.5 85t-58.5 34z" />
    <glyph glyph-name="quotesingle" unicode="'" horiz-adv-x="393" 
d="M479 1454l17 -14q-20 -68 -74.5 -211t-95.5 -225l-64 -27q62 332 66 432z" />
    <glyph glyph-name="parenleft" unicode="(" horiz-adv-x="692" 
d="M764 1456l33 -47q-225 -148 -362.5 -446t-137.5 -639q0 -179 42 -348.5t134 -282.5l-47 -39q-136 109 -203 299t-67 397q1 247 78 467.5t213.5 384t316.5 254.5z" />
    <glyph glyph-name="parenright" unicode=")" horiz-adv-x="681" 
d="M287 1417l47 39q147 -113 215.5 -329.5t44.5 -462.5q-10 -215 -83 -410t-205.5 -352.5t-309.5 -247.5l-33 47q146 98 254.5 257.5t167 346.5t68.5 387q22 207 -22 409.5t-144 315.5z" />
    <glyph glyph-name="asterisk" unicode="*" horiz-adv-x="800" 
d="M883 1047v-58l-275 -31l64 -284l-51 -19l-125 275l-258 -139l-29 49l223 172l-201 223l35 43l236 -182l135 266l51 -19l-78 -278z" />
    <glyph glyph-name="plus" unicode="+" horiz-adv-x="1220" 
d="M1126 471h-430v-471h-116v471h-430v100h430v426h116v-426h430v-100z" />
    <glyph glyph-name="comma" unicode="," horiz-adv-x="481" 
d="M16 -233l-22 59q78 33 126.5 80t49.5 104q3 94 -94 125q-17 9 -17 29q1 40 32 69t69 29q63 0 107 -61.5t38 -141.5q-3 -58 -29.5 -107t-70 -84t-89.5 -59t-100 -42z" />
    <glyph glyph-name="hyphen" unicode="-" horiz-adv-x="684" 
d="M610 518l-37 -112h-471l37 112h471z" />
    <glyph glyph-name="period" unicode="." horiz-adv-x="481" 
d="M180 -25q-44 0 -72 30.5t-28 76.5q0 56 33.5 91.5t85.5 35.5q42 0 70 -31.5t28 -77.5q0 -58 -34.5 -91.5t-82.5 -33.5z" />
    <glyph glyph-name="slash" unicode="/" horiz-adv-x="659" 
d="M731 1360l-659 -1452h-109l660 1452h108z" />
    <glyph glyph-name="zero" unicode="0" horiz-adv-x="976" 
d="M653 1300q70 0 125.5 -26.5t91 -70t58 -104t31 -125t6.5 -136.5q-2 -85 -17.5 -178.5t-44 -191t-75 -185.5t-104 -157t-137 -110t-169.5 -41q-87 0 -151 39t-99.5 107.5t-51.5 151.5t-14 180q1 82 17 174.5t46 188t77.5 182t106 154.5t137.5 108t167 40zM643 1233
q-89 0 -162.5 -88t-116.5 -220.5t-66.5 -270t-25.5 -255.5q-2 -73 4.5 -132.5t23.5 -112t50 -82t80 -29.5q71 0 133 64.5t102.5 162t70 216.5t43.5 224t16 189q2 64 -3.5 119.5t-21 106t-48 79.5t-79.5 29z" />
    <glyph glyph-name="one" unicode="1" horiz-adv-x="976" 
d="M766 1300l-205 -1052q-9 -48 -13 -73t0.5 -49t13 -33.5t35 -19t55 -12.5t85.5 -8l-14 -53h-563l12 53q40 3 61.5 5.5t46.5 8t36.5 9.5t25.5 16t20 22.5t14 33t13 43t12 57.5l150 760q19 90 0 112.5t-111 22.5h-69l12 51q211 32 383 106z" />
    <glyph glyph-name="two" unicode="2" horiz-adv-x="976" 
d="M229 1026l131 164q120 110 267 110q148 0 233.5 -85.5t85.5 -233.5q0 -61 -20 -120t-48.5 -105.5t-85.5 -107t-103 -102.5t-130 -114l-326 -285h365q89 0 130 22t101 107l50 -24q-34 -67 -115 -252h-758l2 43q267 226 410 363q85 83 141.5 144.5t109 132t78 137
t25.5 130.5q0 98 -53 158.5t-164 60.5q-46 0 -89 -17t-79.5 -48t-61 -57.5t-53.5 -63.5z" />
    <glyph glyph-name="three" unicode="3" horiz-adv-x="976" 
d="M266 1069l96 123q108 108 263 108q126 0 197 -72t71 -175q0 -112 -96 -189q-54 -44 -154 -106v-4q111 -30 175.5 -106.5t64.5 -186.5q0 -202 -226 -359q-86 -62 -186.5 -94.5t-175.5 -32.5q-56 0 -111.5 21t-85.5 51q-45 42 -39 84q1 17 17.5 36.5t38.5 33.5q23 16 41 -2
q53 -55 110 -88t137 -33q131 0 215 85t84 249q0 118 -67 180.5t-166 62.5q-48 0 -123 -18l-12 55q189 52 290 129.5t101 190.5q0 80 -45.5 126t-128.5 46q-52 0 -101.5 -27t-78 -55.5t-66.5 -75.5z" />
    <glyph glyph-name="four" unicode="4" horiz-adv-x="976" 
d="M944 455l-18 -88h-195l-24 -136q-8 -43 -11 -65.5t0.5 -44.5t10.5 -31t28 -18t45 -12t68 -7l-12 -53h-519l13 53q50 4 76 7t52 12t36 17t22 31t17 44.5t14 66.5l26 136h-528l12 55q454 556 764 866h88l-161 -833h196zM723 1092h-4q-270 -297 -533 -637h404z" />
    <glyph glyph-name="five" unicode="5" horiz-adv-x="976" 
d="M963 1276l-62 -148h-471l-115 -376q151 49 213 49q164 0 257.5 -96t93.5 -230q0 -117 -67.5 -220.5t-190.5 -178.5q-74 -48 -158 -74.5t-154 -26.5q-69 0 -130.5 25t-92.5 57q-39 42 -31 76q1 18 17 39t37 33q25 14 45 -6q112 -121 260 -121q130 0 209 86.5t79 247.5
q0 129 -69.5 205.5t-214.5 76.5q-88 0 -189 -35l-14 19l168 598h580z" />
    <glyph glyph-name="six" unicode="6" horiz-adv-x="976" 
d="M1018 1313l12 -64q-111 -18 -227 -67q-340 -135 -471 -461l2 -4l133 63q84 37 125 37q148 -1 235.5 -98.5t87.5 -253.5q0 -102 -37.5 -194t-100 -156t-145.5 -102t-171 -38q-168 0 -266.5 118.5t-98.5 307.5q0 152 49.5 290t138 246t209.5 189t265 127q119 36 260 60z
M508 709q-95 0 -201 -70q-37 -101 -37 -240q0 -71 12.5 -133.5t38 -113t69 -80t99.5 -29.5q111 0 181.5 111.5t70.5 277.5q0 52 -10.5 97t-35 87.5t-72.5 67.5t-115 25z" />
    <glyph glyph-name="seven" unicode="7" horiz-adv-x="976" 
d="M1059 1276l16 -25q-147 -243 -433 -696.5t-351 -558.5l-162 -21l-14 25q469 583 798 1128h-430q-93 0 -130 -26t-93 -131l-55 16q33 82 88 289h766z" />
    <glyph glyph-name="eight" unicode="8" horiz-adv-x="976" 
d="M641 1300q122 0 212.5 -77t90.5 -203q0 -54 -25 -107t-67 -88q-86 -68 -188 -135q55 -40 91 -71.5t70 -72.5t50 -87t16 -99q0 -157 -132 -271t-317 -114q-148 0 -253 85t-105 233q0 123 111 217q60 51 227 156q-78 61 -123 128t-45 158q-1 142 113 245t274 103zM612 1233
q-91 0 -147.5 -65.5t-56.5 -157.5q0 -66 33.5 -122.5t63.5 -81.5t91 -67q9 -7 14 -10q178 118 178 293q0 95 -49 153t-127 58zM471 43q108 0 178 73.5t70 194.5q0 49 -17 91.5t-54.5 82.5t-73 68.5t-97.5 71.5q-225 -135 -225 -332q0 -110 59 -180t160 -70z" />
    <glyph glyph-name="nine" unicode="9" horiz-adv-x="976" 
d="M629 1300q90 0 159.5 -37t110 -99t60.5 -135t20 -152q0 -153 -49.5 -292t-135.5 -245t-196 -185.5t-236 -125.5q-74 -26 -152.5 -43t-115.5 -17l-10 60q139 25 267 95t237.5 191.5t167.5 276.5l-152 -72q-60 -28 -117 -28q-127 0 -215 96t-88 246q0 123 61.5 231
t164.5 171.5t219 63.5zM604 1233q-106 0 -177 -103.5t-71 -248.5q0 -124 60 -199.5t174 -75.5q43 0 96.5 17.5t85.5 42.5q35 100 35 241q0 24 -1.5 47.5t-6 57t-13 62.5t-24 59.5t-36 51.5t-52 34.5t-70.5 13.5z" />
    <glyph glyph-name="colon" unicode=":" horiz-adv-x="481" 
d="M272 610q-43 0 -70.5 31t-27.5 76q0 56 32.5 91.5t84.5 35.5q42 0 70 -31t28 -78q0 -56 -34.5 -90.5t-82.5 -34.5zM180 -25q-45 0 -72.5 30t-27.5 77q0 56 33.5 91.5t85.5 35.5q42 0 70 -31.5t28 -77.5q0 -58 -34.5 -91.5t-82.5 -33.5z" />
    <glyph glyph-name="semicolon" unicode=";" horiz-adv-x="481" 
d="M268 610q-44 0 -72 31t-28 76q0 56 33.5 91.5t85.5 35.5q42 0 70 -31t28 -78q0 -56 -35 -90.5t-82 -34.5zM16 -233l-24 59q81 35 128.5 82.5t47.5 101.5q0 97 -92 125q-17 9 -17 29q1 40 32 69t69 29q64 0 104.5 -58.5t40.5 -131.5q0 -61 -26 -112.5t-70.5 -88
t-91.5 -61.5t-101 -43z" />
    <glyph glyph-name="less" unicode="&#x3c;" horiz-adv-x="1222" 
d="M1059 0l-926 471v96l926 471v-112l-805 -406v-4l805 -403v-113z" />
    <glyph glyph-name="equal" unicode="=" horiz-adv-x="1220" 
d="M1130 657h-993v103h993v-103zM1130 283h-993v102h993v-102z" />
    <glyph glyph-name="greater" unicode="&#x3e;" horiz-adv-x="1222" 
d="M1130 471l-925 -471v113l805 403v4l-805 406v112l925 -471v-96z" />
    <glyph glyph-name="question" unicode="?" horiz-adv-x="724" 
d="M412 434l-41 -43q-67 36 -122.5 101.5t-55.5 134.5q1 75 58.5 137t158.5 125q37 22 56 33.5t54.5 34.5t55.5 40.5t42.5 40.5t33 45.5t10.5 44.5q0 48 -30 76.5t-85 28.5q-45 1 -88.5 -15.5t-69.5 -36.5t-48.5 -36.5t-29.5 -16.5q-24 0 -46.5 25.5t-22.5 58.5q0 39 57 78
q43 33 96 51.5t92 18.5q109 0 190 -89.5t81 -209.5q0 -71 -32.5 -124t-102.5 -99q-172 -112 -203 -137q-72 -56 -79 -107q-1 -8 -1 -16q0 -75 72 -144zM270 -25q-47 0 -76.5 31.5t-29.5 81.5q0 58 35.5 96.5t89.5 38.5q46 0 76 -33t30 -84q0 -60 -37.5 -95.5t-87.5 -35.5z
" />
    <glyph glyph-name="at" unicode="@" horiz-adv-x="1511" 
d="M1110 -41l20 -57q-192 -107 -409 -107q-122 0 -231.5 41t-194 117t-134.5 194t-50 261q0 142 44.5 267.5t120.5 217.5t176.5 158.5t214.5 99.5t232 33q132 0 240 -42t178 -114t107.5 -167.5t37.5 -203.5q0 -139 -65.5 -256.5t-180 -186.5t-251.5 -69q-48 0 -71 20
t-22.5 53t9.5 77l24 111l-4 2q-54 -81 -167 -172t-175 -91q-39 0 -68.5 47t-29.5 125q0 98 43.5 206t128.5 188q65 62 151.5 102t176.5 43q19 1 106 -18q45 -9 61 -9q-57 -224 -108 -477q-14 -69 -6.5 -95.5t39.5 -25.5q51 2 104 28.5t100.5 76.5t78 134t30.5 187
q0 140 -65 243t-173.5 154.5t-244.5 51.5q-187 0 -333.5 -87.5t-226 -242t-79.5 -348.5q0 -80 17 -154t58.5 -145.5t102.5 -124.5t156 -85t213 -32q179 0 319 72zM877 778q-78 0 -140 -65q-47 -53 -86 -155.5t-39 -201.5q0 -84 41 -84q37 0 113.5 64.5t161.5 195.5
q37 110 57 222q-43 24 -108 24z" />
    <glyph glyph-name="A" unicode="A" horiz-adv-x="1359" 
d="M1272 55l-15 -55h-483l14 55q71 7 101 19t38 37.5t-1 68.5q-7 46 -25 147t-27 156h-428q-102 -192 -143 -278q-16 -33 -23.5 -53t-8 -37.5t6 -26.5t26 -16t44.5 -10.5t68 -6.5l-13 -55h-440l14 55q53 7 78 13t53.5 28t50.5 55t60 101l617 1091l63 17l57 -363
q53 -340 131 -764q10 -60 18.5 -88t29.5 -49.5t50 -28t87 -12.5zM862 569l-82 531h-4q-228 -420 -284 -531h370z" />
    <glyph glyph-name="B" unicode="B" horiz-adv-x="1185" 
d="M268 1329h480q385 0 385 -280q0 -131 -92.5 -211.5t-241.5 -112.5v-4q132 -27 216.5 -107t84.5 -213q0 -108 -64 -193.5t-172 -137.5q-149 -70 -413 -70h-437l13 55q45 4 69 7t48 12t34 19t22 33.5t18 48.5t15 71l166 856q9 41 12.5 63.5t0.5 43t-10.5 29.5t-29 18
t-46 12.5t-70.5 7.5zM496 752h104q166 0 257 78.5t91 213.5q0 62 -20.5 107t-56.5 69t-76.5 35t-87.5 11q-63 0 -95 -21q-28 -19 -41 -90zM481 684l-82 -434q-19 -109 17.5 -144.5t142.5 -35.5q151 0 247.5 94t96.5 248q0 76 -25 130.5t-71 84.5t-101 43.5t-124 13.5h-101z
" />
    <glyph glyph-name="C" unicode="C" horiz-adv-x="1300" 
d="M1192 356l53 -28q-27 -66 -78 -165t-84 -145q-213 -49 -352 -49q-129 0 -237.5 39t-188.5 112t-125 185.5t-45 253.5q0 237 114 421.5t307 283t429 98.5q181 0 350 -68q-2 -34 -6.5 -145.5t-9.5 -167.5l-62 -6q-7 176 -83.5 245.5t-235.5 69.5q-131 0 -245.5 -60
t-192 -160t-122 -231.5t-44.5 -273.5q0 -149 47 -266.5t143.5 -188.5t229.5 -71q74 0 137.5 23t117 70t95 98.5t88.5 125.5z" />
    <glyph glyph-name="D" unicode="D" horiz-adv-x="1449" 
d="M266 1329h510q151 0 269 -32t204.5 -98.5t132 -173.5t45.5 -251q0 -194 -88 -356.5t-249 -263.5q-127 -83 -278 -118.5t-349 -35.5h-445l15 55q43 4 68 8t48 13.5t33.5 19.5t22 33t17 48t14.5 69l159 835q9 45 12.5 69.5t0.5 47.5t-10 33t-28.5 20t-45.5 14.5t-70 10.5z
M573 1139l-165 -875q-14 -76 -9.5 -111.5t31.5 -50.5q49 -28 150 -28q152 0 277 57t206.5 154.5t125.5 226t44 272.5q0 232 -126.5 355t-352.5 123q-96 0 -136 -21q-30 -18 -45 -102z" />
    <glyph glyph-name="E" unicode="E" horiz-adv-x="1144" 
d="M262 1329h891q-10 -60 -39 -313l-59 -4q-3 132 -27 180q-13 26 -29 39.5t-56.5 22t-113.5 8.5h-159q-51 0 -64.5 -13t-25.5 -71l-84 -445h196q46 0 74 1.5t52.5 8.5t37 14.5t26.5 28t22 40t22 57.5h59l-78 -387h-57q1 26 1 39.5t-1 31.5t-2.5 26t-6.5 19.5t-10.5 15.5
t-16 10.5t-22 8t-30.5 3.5t-38.5 2.5t-47.5 0.5h-197l-67 -358q-17 -89 -15 -133.5t25 -63.5q22 -18 67 -23t140 -5q114 0 170.5 14.5t97.5 54.5q59 57 137 197l58 -21q-5 -12 -57.5 -145t-69.5 -170h-959l12 55q47 4 72 7t50 12t36 19t23 33t18.5 48.5t15.5 71.5l162 839
q9 46 13 70.5t1 48t-10.5 33t-29.5 19t-47 13t-72 7.5z" />
    <glyph glyph-name="F" unicode="F" horiz-adv-x="1079" 
d="M268 1329h885q-1 -9 -37 -311l-59 -6q-3 119 -23 176q-14 41 -54 57.5t-144 16.5h-168q-50 0 -63.5 -14t-22.5 -68l-90 -469h213q48 0 75.5 1t53 8.5t37 13.5t26.5 27.5t22.5 38.5t24.5 58h60l-78 -393h-58q0 44 -1 65t-7 44t-15.5 31t-32 16t-49.5 9t-75 1h-213
l-72 -375q-8 -47 -11.5 -74t1 -51t13.5 -35t34 -20.5t53.5 -13t79.5 -7.5l-12 -55h-541l15 55q42 4 65.5 7.5t46.5 12.5t33.5 20t22 35t18 51t15.5 75l157 817q9 51 13 76.5t1.5 51t-8.5 34.5t-28 19t-45 13.5t-70 8.5z" />
    <glyph glyph-name="G" unicode="G" horiz-adv-x="1394" 
d="M1339 977l-59 -4q0 169 -81.5 243t-246.5 74q-111 0 -209 -38t-171.5 -106t-127 -158.5t-81 -197.5t-27.5 -221q0 -236 116.5 -382t327.5 -146q100 0 158.5 33.5t75.5 109.5l39 193q9 42 12.5 64t-1 44t-13.5 30t-36 17t-56 12.5t-87 8.5l13 53h499l-12 -51
q-33 -5 -49.5 -8.5t-34 -12.5t-24.5 -17.5t-16 -30.5t-14 -44t-13 -65l-33 -170q-19 -99 -10 -162q-27 -6 -96.5 -23.5t-111 -26.5t-106 -17.5t-121.5 -8.5q-272 0 -439 155.5t-167 430.5q0 232 109.5 416t306.5 287.5t448 103.5q182 0 363 -66q-16 -166 -25 -319z" />
    <glyph glyph-name="H" unicode="H" horiz-adv-x="1519" 
d="M1612 1329l-13 -53q-44 -4 -68.5 -7.5t-47.5 -13.5t-33 -19.5t-21 -34.5t-17 -49.5t-15 -72.5l-158 -831q-9 -46 -12.5 -71t-0.5 -48.5t10.5 -33.5t28.5 -19.5t46 -13t71 -7.5l-12 -55h-520l14 55q66 6 97 12t55 29t33 53.5t22 98.5l78 414h-670l-78 -414
q-6 -35 -9.5 -56.5t-3.5 -42.5t1.5 -32.5t10.5 -22.5t19 -16t31 -10.5t41.5 -7.5t55.5 -5l-12 -55h-508l12 55q42 4 66 7.5t45.5 13t31.5 19t21 34t16 48.5t14 71l160 831q9 47 13 72.5t1 49.5t-10.5 34t-29.5 19.5t-47 13.5t-72 8l14 53h506l-12 -53q-41 -4 -64 -8
t-45 -13.5t-32.5 -20.5t-21.5 -34t-17.5 -49.5t-14.5 -71.5l-63 -334h667l66 334q9 46 12.5 72t0.5 50t-10.5 34t-28 19.5t-44.5 13.5t-69 8l12 53h508z" />
    <glyph glyph-name="I" unicode="I" horiz-adv-x="686" 
d="M778 1329l-12 -53q-45 -4 -69 -7.5t-47 -12.5t-33 -17.5t-21 -30.5t-16 -44t-13 -64l-166 -862q-8 -43 -11.5 -68t0 -47t11.5 -31.5t30 -18.5t47.5 -12t72.5 -6l-12 -55h-525l15 55q44 3 69 6.5t48 12t34 18.5t22 32.5t16.5 46t14.5 67.5l166 862q8 41 11 64.5t-1 44
t-12 30t-31.5 18t-48.5 11.5t-73 8l14 53h520z" />
    <glyph glyph-name="J" unicode="J" horiz-adv-x="657" 
d="M768 1329l-14 -53q-42 -5 -63 -8.5t-44 -12.5t-31.5 -18.5t-19.5 -32t-16.5 -47t-14.5 -70.5l-153 -821q-37 -199 -104 -317t-183 -185q-94 -55 -160 -59l-20 59q163 49 227 222q38 102 82 321l145 780q8 45 11.5 70.5t-1.5 48t-11.5 32t-30.5 18t-46 12t-71 8.5l12 53
h506z" />
    <glyph glyph-name="K" unicode="K" horiz-adv-x="1337" 
d="M1464 1329l-14 -53q-115 -17 -167 -40t-148 -99q-111 -88 -449 -381q172 -285 373 -563q59 -79 98.5 -103.5t126.5 -34.5l-16 -55h-295q-40 62 -121 186t-144.5 223t-115.5 187q-31 51 -58.5 63.5t-60.5 -4.5l-72 -393q-7 -38 -10.5 -61t-4 -46t1 -35t10 -24.5t18 -17.5
t29.5 -10.5t40 -7.5t54 -5l-13 -55h-501l14 55q42 4 64 7t45 12.5t33 20.5t22 36t19 53.5t16 77.5l155 815q9 47 13 73t1 50t-9.5 34t-28 19.5t-45 13.5t-68.5 9l14 53h496l-12 -53q-44 -5 -67 -8.5t-46 -13.5t-33 -20t-21 -34.5t-17 -49.5t-15 -73l-70 -364q70 22 154 92
q236 199 414 377q44 41 41 58.5t-56 25.5l-61 10l14 53h473z" />
    <glyph glyph-name="L" unicode="L" horiz-adv-x="1089" 
d="M991 342l58 -23q-77 -209 -131 -319h-904l13 55q43 3 68 6.5t47.5 12t33.5 18.5t22 32.5t16.5 46t14.5 67.5l168 856q6 33 9.5 53t4 40t-1.5 30t-11 21t-18.5 15.5t-31 9.5t-41 7.5t-55.5 5.5l12 53h512l-12 -53q-45 -4 -70 -7t-48.5 -12.5t-33 -18t-20.5 -32t-16 -45.5
t-13 -67l-162 -848q-21 -115 23 -148q20 -17 61.5 -21.5t122.5 -4.5q94 0 148.5 13t91.5 48q72 72 143 209z" />
    <glyph glyph-name="M" unicode="M" horiz-adv-x="1794" 
d="M1864 1329l-15 -53q-51 -5 -75.5 -7.5t-50.5 -12.5t-35 -18.5t-20.5 -34t-15.5 -49t-12 -73.5q-51 -350 -110 -805q-6 -41 -8.5 -66.5t-1.5 -50t2.5 -37.5t12 -25.5t19 -17.5t31.5 -10.5t41 -7.5t55 -6l-12 -55h-518l12 55q46 5 68.5 8t47 13.5t34 21t21 38t16.5 56.5
t14 84q26 180 78 504.5t57 358.5h-6l-678 -1131h-45q-84 465 -209 1110h-6l-147 -540q-87 -322 -97 -394q-11 -69 17 -94t139 -35l-12 -55h-461l12 55q88 7 128 33.5t65 91.5q55 144 147 469l115 389q16 57 23.5 88t7 60t-8 41.5t-32 24t-53.5 15.5t-83 9l15 53h342
q120 -576 223 -1026l637 1026h332z" />
    <glyph glyph-name="N" unicode="N" horiz-adv-x="1443" 
d="M1569 1329l-13 -53q-89 -6 -123 -32t-55 -97q-34 -114 -78 -348l-155 -815h-62l-606 1085h-6l-106 -545q-48 -241 -54 -344q-3 -69 31.5 -93t142.5 -32l-12 -55h-469l12 55q82 5 121.5 30t59.5 89q33 98 86 356l106 504q14 79 11.5 111t-23.5 67q-19 32 -53.5 45
t-120.5 19l12 53h295l604 -1042h8l95 512q47 240 55 350q4 72 -29.5 95.5t-148.5 31.5l14 53h461z" />
    <glyph glyph-name="O" unicode="O" horiz-adv-x="1449" 
d="M881 1362q243 0 393.5 -164.5t150.5 -423.5q0 -161 -56 -308.5t-153 -257t-237 -174.5t-299 -65q-242 0 -393.5 161.5t-151.5 420.5q0 213 96.5 398.5t269.5 299t380 113.5zM864 1290q-116 0 -218 -68t-169.5 -177t-106 -243.5t-38.5 -269.5q0 -141 38 -249.5t121.5 -175
t204.5 -66.5q99 0 186.5 46t150 122.5t108 174.5t68 203.5t22.5 207.5q0 106 -20.5 193t-63 156t-114.5 107.5t-169 38.5z" />
    <glyph glyph-name="P" unicode="P" horiz-adv-x="1134" 
d="M270 1329h467q214 0 322 -88t108 -256q0 -105 -44.5 -190.5t-117 -138t-155.5 -82.5t-170 -35q-27 -2 -80 -2l-137 43l-62 -324q-9 -47 -12.5 -74t0.5 -51t13 -34.5t34 -20t53 -13.5t80 -8l-12 -55h-543l13 55q45 5 68.5 8t47.5 12.5t35 20t23 35t18.5 51t16.5 74.5
l163 829q9 44 13 68.5t1 47.5t-10 33t-28.5 19.5t-46 13.5t-70.5 9zM573 1153l-96 -508q78 -27 152 -27q46 0 93 12t95 40.5t84.5 70t60 106.5t23.5 144q0 129 -71 202t-203 73q-49 0 -88 -17q-35 -15 -50 -96z" />
    <glyph glyph-name="Q" unicode="Q" horiz-adv-x="1452" 
d="M1358 -287l-17 -43q-129 3 -241 35q-133 34 -438 248l-29 20q-223 15 -360.5 172.5t-137.5 401.5q0 160 57 309t155 260.5t237.5 178.5t296.5 67q243 0 393.5 -164.5t150.5 -423.5q0 -272 -153 -488.5t-395 -285.5l26 -18q211 -154 455 -269zM618 45l142 37q14 -9 49 -35
q95 26 176 104t134 182.5t82.5 224.5t29.5 235q0 106 -20.5 193t-63 156.5t-114.5 108.5t-169 39q-92 0 -176.5 -44t-148 -119.5t-111 -172.5t-72 -207t-24.5 -219q0 -189 74.5 -321t211.5 -162z" />
    <glyph glyph-name="R" unicode="R" horiz-adv-x="1226" 
d="M1198 35l-16 -51h-21q-98 5 -160 27t-101.5 61.5t-78.5 111.5q-62 118 -139 303q-25 59 -51 78t-82 19h-86l-60 -324q-10 -49 -14 -77t-0.5 -52.5t10.5 -35.5t29.5 -20.5t47 -12.5t71.5 -7l-12 -55h-515l13 55q45 5 68 8t47 12.5t34 20t22 35.5t18 52t16 77l157 823
q7 36 10.5 57t4 42.5t-0.5 32t-10 22.5t-18 16t-30 9.5t-40 8t-55 5.5l14 53h445q198 0 291 -63q120 -81 120 -252q0 -98 -46.5 -179t-115 -131.5t-155.5 -80.5q66 -163 123 -275q74 -145 127 -215q34 -44 65 -64t74 -34zM475 647h96q143 0 220 51q70 48 111.5 127t41.5 172
q0 131 -64 200t-178 69q-65 0 -92 -21q-25 -17 -39 -90z" />
    <glyph glyph-name="S" unicode="S" horiz-adv-x="958" 
d="M78 399l55 7q10 -65 31 -124t58.5 -116.5t100 -92t142.5 -34.5q110 0 178 72t68 192q0 82 -46 146.5t-145 142.5l-57 45q-38 31 -61 51t-59.5 58.5t-57 72t-36.5 80.5t-16 96q0 160 116 263.5t300 103.5q95 0 195 -35q47 -17 90 -33q-4 -38 -5 -86.5t-0.5 -108.5
t-0.5 -91l-60 -7q-7 63 -21 111.5t-41 91.5t-73.5 66.5t-109.5 23.5q-103 0 -166.5 -70.5t-63.5 -168.5q0 -81 47 -140.5t144 -134.5l61 -45q118 -88 178 -175t60 -200q0 -116 -63 -206.5t-164 -137.5t-220 -47q-112 0 -212 41t-140 86q-1 21 -2.5 123t-3.5 180z" />
    <glyph glyph-name="T" unicode="T" horiz-adv-x="1234" 
d="M1303 1380h43q-25 -141 -48 -358l-61 -6q0 128 -25 182q-14 37 -58 50.5t-161 13.5h-123l-190 -1016q-8 -45 -11.5 -71t1 -49t13.5 -33.5t33.5 -19t52.5 -12t79 -6.5l-12 -55h-557l12 55q48 3 75 6.5t51.5 12.5t36 19t23 34t17 48.5t14.5 70.5l194 1016h-104
q-126 0 -173.5 -13t-78.5 -49q-43 -51 -100 -184h-62q60 195 97 364h43q16 -33 35.5 -42t64.5 -9h770q38 0 58 10t51 41z" />
    <glyph glyph-name="U" unicode="U" horiz-adv-x="1447" 
d="M1583 1329l-12 -53q-97 -6 -130.5 -29t-49.5 -84q-37 -133 -82 -368l-31 -158q-38 -184 -93 -314t-151 -219q-144 -135 -348 -135q-196 0 -315 111q-156 146 -92 495l98 519q6 33 9.5 53t4 40t-1.5 30t-10.5 21t-18 15.5t-30 9.5t-40 7.5t-54.5 5.5l12 53h508l-13 -53
q-45 -5 -67 -7.5t-46 -11.5t-33 -18t-21 -31.5t-17 -46.5t-14 -69l-94 -500q-24 -141 -15 -238.5t52.5 -159t104.5 -89t140 -27.5q183 0 293.5 138.5t169.5 436.5l29 142q48 251 55 368q3 62 -32.5 83.5t-147.5 29.5l12 53h471z" />
    <glyph glyph-name="V" unicode="V" horiz-adv-x="1382" 
d="M1534 1329l-14 -53q-37 -5 -57.5 -8.5t-44 -12t-37 -19.5t-33.5 -33t-38 -48.5t-46 -71.5q-68 -110 -259 -448t-364 -655h-59q-87 526 -199 1116q-9 41 -15.5 66.5t-18 46t-21 31t-30 18.5t-40 11t-55.5 7l14 53h469l-14 -53l-56 -10q-59 -9 -72 -26.5t-5 -74.5
q8 -64 32.5 -200t69.5 -374.5t64 -344.5h4q393 704 475 880q38 84 28.5 107.5t-77.5 32.5l-64 10l14 53h449z" />
    <glyph glyph-name="W" unicode="W" horiz-adv-x="1943" 
d="M2066 1329l-12 -53q-39 -6 -58.5 -9.5t-42.5 -13t-34 -18.5t-28.5 -32t-31 -47.5t-36.5 -70.5q-94 -177 -523 -1105h-63l-166 1015h-6l-490 -1015h-63l-123 1099q-5 49 -8.5 74.5t-12 50t-16.5 34t-29 18.5t-40.5 12t-59.5 8l13 53h462l-14 -53l-51 -8q-63 -9 -77 -30.5
t-5 -104.5l88 -857h4l485 1029h60l170 -1031h4q18 40 97.5 213t116 254t88.5 201t79 193q30 77 16.5 99.5t-90.5 33.5l-53 8l12 53h438z" />
    <glyph glyph-name="X" unicode="X" horiz-adv-x="1314" 
d="M1393 1329l-13 -53q-108 -12 -149 -32.5t-121 -106.5q-126 -145 -332 -398l228 -503q20 -44 31 -67t27.5 -45.5t28.5 -31.5t37 -18t49 -12t68 -7l-12 -55h-516l12 55l64 8q56 8 67 26.5t-10 72.5q-116 272 -190 438q-248 -315 -330 -438q-33 -47 -24.5 -69t71.5 -32
l49 -6l-12 -55h-465l14 55q99 9 143 31.5t119 101.5q121 132 400 482l-197 444q-45 101 -78.5 125.5t-138.5 36.5l14 53h473l-12 -53l-53 -10q-52 -9 -61.5 -22.5t4.5 -57.5q33 -87 167 -377q170 206 283 367q33 47 26 64.5t-59 25.5l-59 10l12 53h445z" />
    <glyph glyph-name="Y" unicode="Y" horiz-adv-x="1251" 
d="M1405 1329l-14 -53q-70 -7 -105 -19.5t-66.5 -40.5t-86.5 -96q-123 -156 -336 -461q-38 -50 -49 -116l-58 -289q-10 -48 -14 -74.5t0.5 -50.5t12.5 -34t33 -19.5t51.5 -12.5t78.5 -8l-12 -55h-547l14 55q47 3 71.5 6t49.5 12t36 19.5t23 35t18.5 51t16.5 75.5l56 276
q10 56 -11 121q-178 468 -182 479q-35 91 -63 112.5t-125 33.5l12 53h475l-14 -53l-72 -10q-52 -7 -62 -24.5t7 -61.5q79 -234 186 -494q235 323 330 481q31 54 21 72.5t-68 26.5l-64 8l15 55h442z" />
    <glyph glyph-name="Z" unicode="Z" horiz-adv-x="1204" 
d="M1251 1329l13 -26q-479 -575 -1006 -1221q123 -12 320 -12q162 0 246 12t130 51q64 54 150 227l57 -24q-17 -57 -58.5 -172t-64.5 -164h-1022l-12 31q627 752 1014 1231h-324q-99 0 -155 -8.5t-79.5 -22.5t-45.5 -43q-51 -57 -105 -195l-59 6q59 213 84 381h43
q18 -34 37 -42.5t65 -8.5h772z" />
    <glyph glyph-name="bracketleft" unicode="[" horiz-adv-x="692" 
d="M786 1442l-14 -56q-63 -6 -91.5 -9t-60.5 -13t-42 -18t-24.5 -33t-19 -48t-14.5 -73l-244 -1274q-9 -48 -13 -72.5t1 -48.5t13 -32.5t38 -18.5t58.5 -13t91.5 -9l-14 -56h-351l342 1774h344z" />
    <glyph glyph-name="backslash" unicode="\" horiz-adv-x="768" 
d="M666 -92h-109l-393 1452h108z" />
    <glyph glyph-name="bracketright" unicode="]" horiz-adv-x="692" 
d="M655 1442l-340 -1774h-346l15 56q63 6 92 9t61 13.5t42 18t24 33t18.5 48l14.5 72.5l245 1274q7 37 10.5 57t2.5 42t-2.5 32t-14.5 22t-23.5 16t-39 10t-52 8.5t-71.5 6.5l14 56h350z" />
    <glyph glyph-name="asciicircum" unicode="^" horiz-adv-x="1130" 
d="M1030 432h-121l-319 709l-320 -709h-112l393 844h86z" />
    <glyph glyph-name="underscore" unicode="_" horiz-adv-x="1024" 
d="M1024 -256h-1024v102h1024v-102z" />
    <glyph glyph-name="grave" unicode="`" 
d="M659 1024l-59 -18q-115 220 -182 335l8 19q14 6 70 16.5t79 7.5q10 -52 84 -360z" />
    <glyph glyph-name="a" unicode="a" horiz-adv-x="1003" 
d="M928 238l24 -50q-77 -95 -166 -154t-133 -59q-22 0 -33.5 13.5t-15.5 54t12 113.5l41 194h-4q-111 -157 -264 -282q-115 -93 -190 -93q-46 0 -82.5 59.5t-36.5 172.5q0 156 67 309t179 246q81 68 184.5 113t196.5 45q46 0 127 -15q58 -12 77 -12l7 -8q-71 -273 -142 -666
q-17 -88 4 -88q13 0 59.5 32.5t88.5 74.5zM305 106q38 0 117 71t154 166t110 165q22 79 68 295q-58 28 -138 28q-89 0 -145 -43q-100 -74 -160.5 -230.5t-60.5 -315.5q0 -66 16 -101t39 -35z" />
    <glyph glyph-name="b" unicode="b" horiz-adv-x="995" 
d="M215 1339l4 50q69 8 138.5 25.5t112 30.5t54.5 13q26 0 11 -63q-100 -401 -183 -783h4q123 151 245 229.5t200 78.5q67 0 106 -62t39 -164q0 -169 -90 -342t-225 -264q-165 -113 -309 -113q-49 0 -95 24.5t-69 63.5q-49 78 -13 256q29 143 96.5 450.5t100.5 469.5
q13 69 2.5 83.5t-70.5 14.5zM424 70q54 0 106 30q96 57 171 218t75 341q0 74 -19 111t-50 37q-57 0 -168 -92t-205 -226q-21 -64 -37 -159q-12 -75 -8 -125t26 -80t48.5 -42.5t60.5 -12.5z" />
    <glyph glyph-name="c" unicode="c" horiz-adv-x="782" 
d="M688 248l31 -45q-93 -106 -205 -167t-205 -61q-101 0 -160 78t-59 223q0 130 57.5 266.5t153.5 225.5q68 60 162.5 106t165.5 46q64 0 108.5 -31.5t46.5 -71.5q0 -58 -67 -94q-24 -15 -45 12q-64 88 -154 88q-99 0 -170 -135q-40 -72 -65 -171t-25 -200q0 -107 39 -164
t106 -57q70 0 151.5 49t133.5 103z" />
    <glyph glyph-name="d" unicode="d" horiz-adv-x="1040" 
d="M963 229l28 -47q-77 -91 -165.5 -149t-135.5 -58q-23 0 -35 14.5t-16 57t14 119.5l37 174l-4 -2q-108 -144 -270 -268q-118 -95 -199 -95q-55 0 -94 64.5t-39 181.5q0 148 64 297t174 244q72 63 181 110.5t181 47.5q62 0 121 -23l67 338q14 69 2 84.5t-79 15.5h-66l6 51
q75 9 147 27t114 31.5t53 13.5q25 0 14 -57q-158 -675 -254 -1204q-14 -68 8 -68q19 0 62 29.5t84 70.5zM317 109q49 0 133 69t156.5 156t108.5 151l65 293q-23 22 -71.5 37.5t-94.5 15.5q-84 0 -143 -43q-65 -47 -116 -141.5t-76 -196t-25 -190.5q0 -75 17.5 -113t45.5 -38
z" />
    <glyph glyph-name="e" unicode="e" 
d="M713 254l35 -47q-216 -232 -433 -232q-31 0 -60 7.5t-59.5 28t-53.5 52.5t-37.5 86.5t-14.5 124.5q0 151 64.5 296.5t181.5 234.5q67 52 143 83.5t139 31.5q80 0 130.5 -48t50.5 -116q0 -49 -25.5 -93.5t-71.5 -80t-99 -65t-118 -54t-117.5 -40.5t-109.5 -30
q-4 -25 -4 -65q0 -45 8 -83.5t25 -73.5t49.5 -55t77.5 -20q65 0 144 41.5t155 116.5zM543 836q-43 0 -84 -25q-24 -14 -49 -37.5t-54 -64t-53.5 -106t-36.5 -146.5q379 101 379 266q0 53 -28.5 83t-73.5 30z" />
    <glyph glyph-name="f" unicode="f" horiz-adv-x="555" 
d="M162 887h131q55 277 172 407q69 76 149.5 120t143.5 44q51 0 88 -29t35 -59q0 -22 -16.5 -46.5t-35.5 -37.5q-30 -22 -51 2q-69 72 -129 72q-30 0 -54.5 -21t-49.5 -73t-48.5 -146t-45.5 -233h231l-43 -64l-205 -20q-51 -313 -104 -578q-52 -254 -111.5 -392t-148.5 -230
q-62 -67 -123.5 -98t-108.5 -31q-46 0 -87 27t-40 61q0 41 56 86q20 18 38 0q24 -22 62 -36.5t67 -14.5q56 0 89 41q68 79 143 514q26 149 60 355t50 300h-170l-6 22z" />
    <glyph glyph-name="g" unicode="g" horiz-adv-x="860" 
d="M961 911l14 -39q-74 -83 -146 -96q-24 -6 -53 -6q17 -49 17 -115q0 -100 -45.5 -181t-110.5 -132q-108 -88 -264 -119q-41 -33 -41 -65q0 -42 147 -119q147 -78 212 -142t65 -130q0 -61 -48 -117t-120.5 -93.5t-156.5 -60t-159 -22.5q-151 0 -260 67.5t-106 161.5
q1 64 86 135t258 160q-37 24 -57.5 51.5t-18.5 48.5q0 53 125 127q-178 41 -178 250q0 98 46.5 189t125.5 153q61 49 132.5 76t129.5 27q107 0 174 -58q160 3 232 49zM410 305q89 0 160 94.5t71 249.5q0 90 -35.5 144.5t-101.5 54.5q-88 0 -150 -92q-78 -111 -78 -267
q0 -87 38 -135.5t96 -48.5zM354 -440q112 0 182 44.5t70 106.5q0 75 -149 162q-114 69 -154 88q-106 -51 -166.5 -109t-60.5 -114q0 -76 83.5 -127t194.5 -51z" />
    <glyph glyph-name="h" unicode="h" horiz-adv-x="1046" 
d="M952 221l27 -49q-77 -89 -162 -143t-133 -54q-82 0 -35 199l109 475q18 82 13.5 114t-30.5 32q-70 0 -214 -136.5t-220 -271.5q-47 -210 -76 -373q-68 -12 -145 -39l-14 17q165 740 258 1229q9 42 11 62.5t-7 33t-23.5 15t-48.5 3.5l-59 2l6 49q71 7 140 25t110 32.5
t51 14.5q14 0 15.5 -15.5t-7.5 -56.5l-184 -849h4q92 123 193 209t186 131q79 43 137 43q117 0 57 -261l-106 -458q-9 -44 -7.5 -59t13.5 -15q16 0 58 27.5t83 66.5z" />
    <glyph glyph-name="i" unicode="i" horiz-adv-x="559" 
d="M455 1313q38 0 59 -26.5t23 -65.5q0 -48 -32 -83.5t-77 -35.5q-37 0 -60.5 25t-25.5 65q0 43 31.5 82t81.5 39zM457 223l26 -43q-55 -68 -151.5 -136.5t-147.5 -68.5q-23 0 -34.5 14t-11 60.5t19.5 126.5l127 524q18 66 -2 66q-13 0 -55 -25.5t-85 -62.5l-24 47
q82 81 175 138t136 57q60 0 21 -162l-142 -565q-16 -66 4 -66q18 0 61.5 30t82.5 66z" />
    <glyph glyph-name="j" unicode="j" horiz-adv-x="544" 
d="M442 1327q38 0 60 -26.5t22 -65.5q0 -48 -30.5 -83.5t-75.5 -35.5q-37 0 -62 25t-26 65q0 44 31 82.5t81 38.5zM139 657l-26 48q89 93 183 154t140 61q33 0 36.5 -52t-19.5 -159q-42 -221 -115 -574q-75 -375 -242 -532q-68 -67 -126.5 -98t-92.5 -31q-32 0 -60 18.5
t-28 46.5q0 22 14.5 48t34.5 42q25 21 45 9q60 -33 101 -33q46 0 78 50.5t61 168.5q22 96 44 203.5t59.5 303.5t60.5 312q23 109 7 116q-2 1 -5 1q-14 0 -61.5 -32.5t-88.5 -70.5z" />
    <glyph glyph-name="k" unicode="k" horiz-adv-x="962" 
d="M895 203l35 -41q-64 -102 -124 -144.5t-101 -42.5q-36 0 -68 29t-68 107q-83 176 -155 381q-4 -5 -16.5 -18t-17 -17.5t-15 -15.5t-15 -15.5t-12.5 -13.5t-12.5 -14.5t-10 -12.5t-9.5 -13t-7 -12q-39 -187 -70 -346q-86 -16 -147 -39l-14 13q158 673 278 1255
q12 61 -0.5 75.5t-73.5 16.5l-63 2l10 49q72 8 141.5 26t110 32t49.5 14q14 0 15.5 -14t-5.5 -45q-35 -152 -102 -456t-102 -456h2q62 75 176 185q244 248 358 248q39 0 62.5 -19.5t23.5 -44.5q0 -18 -12.5 -42t-28.5 -40q-20 -17 -33 -10q-36 16 -77 16q-63 0 -136 -53
t-131 -117q26 -90 76.5 -209t91.5 -194q27 -56 44.5 -77t35.5 -21q15 0 47.5 25.5t69.5 68.5z" />
    <glyph glyph-name="l" unicode="l" horiz-adv-x="509" 
d="M440 240l31 -45q-77 -92 -171 -156t-144 -64q-82 0 -29 248q114 533 213 1010q15 66 0 84t-86 18l-55 2l8 49q70 8 140 26t112 32t51 14q13 0 15.5 -14.5t-3.5 -46.5q-60 -283 -254 -1198q-15 -72 8 -72q18 0 70.5 35.5t93.5 77.5z" />
    <glyph glyph-name="m" unicode="m" horiz-adv-x="1611" 
d="M1505 221l27 -49q-77 -86 -162.5 -141.5t-126.5 -55.5q-82 0 -33 211l113 473q31 134 -20 134q-45 0 -133 -79t-168 -179t-117 -170q-30 -116 -80 -353q-73 -8 -150 -37l-12 15q125 506 148 614q22 104 18.5 146.5t-35.5 42.5q-46 0 -134 -80t-167 -180t-113 -168
q-26 -88 -84 -353q-64 -8 -147 -37l-14 15q100 377 170 696q8 36 9.5 55.5t-1 26t-10.5 6.5q-14 0 -58 -31.5t-84 -68.5l-24 49q83 88 165 142.5t124 54.5q40 0 44 -60t-28 -192l-35 -146h4q94 134 191.5 223t175.5 134q71 41 127 41q117 0 49 -312l-19 -84h5
q94 133 194 222.5t180 134.5q69 39 125 39q115 0 43 -297l-100 -428q-16 -66 4 -66q13 0 55.5 27t83.5 65z" />
    <glyph glyph-name="n" unicode="n" horiz-adv-x="1089" 
d="M985 223l29 -49q-86 -93 -166 -146t-123 -53q-83 0 -33 213q6 25 111 455q14 57 15.5 90.5t-6.5 45.5t-26 12q-65 0 -207 -145.5t-223 -283.5q-52 -207 -80 -346q-69 -13 -147 -41l-12 17q122 491 166 694q20 82 -2 82q-14 0 -55.5 -28t-78.5 -64l-26 49q80 87 162 141
t127 54q72 0 16 -228l-43 -178h4q94 129 196 221t181 139q79 46 137 46q17 0 29.5 -5t24.5 -23t16 -48.5t-1.5 -86t-23.5 -130.5q-11 -46 -45.5 -195t-54.5 -231q-16 -74 4 -74q14 0 52.5 27t82.5 69z" />
    <glyph glyph-name="o" unicode="o" horiz-adv-x="962" 
d="M365 -25q-71 0 -124.5 26.5t-84.5 72t-46.5 101t-15.5 120.5q0 191 88.5 339t223.5 220q125 66 221 66q128 0 200 -84t72 -236q0 -137 -57.5 -273.5t-161.5 -222.5q-153 -129 -315 -129zM438 57q34 0 66 13q88 37 155.5 187t67.5 339q0 120 -46 183t-120 63
q-34 0 -78 -19q-33 -14 -68 -52.5t-70 -100t-57 -158t-22 -207.5q0 -115 45.5 -181.5t126.5 -66.5z" />
    <glyph glyph-name="p" unicode="p" horiz-adv-x="995" 
d="M489 1053l-36 -158q89 25 190 25q154 0 224.5 -71.5t70.5 -211.5q0 -104 -44.5 -215.5t-129.5 -208.5q-76 -85 -179 -149t-202 -89q-70 0 -121 21l-57 -289q-10 -46 -11.5 -71t9 -41.5t30.5 -22.5t60 -10l49 -4l-6 -54l-473 -24l8 53q98 19 128.5 46.5t51.5 121.5
q34 159 72.5 339t85 396t72.5 336q-62 -19 -166 -74l-15 52q76 54 197 102l22 92q57 65 150 119zM434 817l-139 -682q19 -26 56 -47.5t71 -21.5q53 0 114.5 48t112 122.5t84 173.5t33.5 194q0 127 -57.5 177t-157.5 50q-62 0 -117 -14z" />
    <glyph glyph-name="q" unicode="q" horiz-adv-x="991" 
d="M850 -444l-8 -52l-473 -24l10 53l33 6q74 15 99.5 43t45.5 121l131 633h-4q-95 -124 -262 -258q-133 -103 -215 -103q-54 0 -91.5 65t-37.5 165q0 160 65.5 306t171.5 241q68 60 157 101.5t155 53.5q47 13 106 13q79 0 178 -31l33 -8q-59 -235 -96 -449l-133 -717
q-10 -51 -11.5 -77.5t10 -43.5t29.5 -22t58 -10zM627 829q-88 0 -152 -45q-102 -73 -163.5 -227t-61.5 -299q0 -70 17 -107.5t44 -37.5q69 0 191.5 116.5t199.5 235.5q44 173 72 334q-58 30 -147 30z" />
    <glyph glyph-name="r" unicode="r" horiz-adv-x="749" 
d="M127 672l-27 47q76 85 160 143t127 58q37 0 42 -65.5t-19 -172.5l-21 -102h6q79 153 162.5 246.5t144.5 93.5q26 0 50.5 -15t38.5 -37q22 -43 -3 -88q-18 -31 -53 -59q-28 -19 -45 -2q-32 35 -69 35q-44 0 -105 -86q-104 -153 -145 -254q-33 -136 -82 -402
q-67 -9 -146 -37l-16 17q99 409 149 690q9 51 8.5 69.5t-12.5 18.5q-14 0 -57.5 -28.5t-87.5 -69.5z" />
    <glyph glyph-name="s" unicode="s" horiz-adv-x="690" 
d="M231 -25q-73 0 -139.5 47t-66.5 101q-3 51 59 86q35 17 51 -6q39 -59 92 -92t105 -33q60 0 97.5 36t37.5 87q0 41 -25 79.5t-94 92.5q-85 65 -131.5 122.5t-46.5 127.5q0 105 106 198q48 42 113.5 70.5t114.5 28.5q65 0 112.5 -36.5t47.5 -78.5q0 -54 -52 -84
q-27 -16 -45 8q-74 92 -159 92q-46 0 -78.5 -31.5t-32.5 -82.5q0 -50 33 -91t100 -92q95 -71 133.5 -123t38.5 -116q0 -75 -58 -148t-144.5 -117.5t-168.5 -44.5z" />
    <glyph glyph-name="t" unicode="t" horiz-adv-x="628" 
d="M692 887l-53 -70l-203 -10l-121 -565q-10 -48 -10.5 -76t5.5 -37.5t18 -9.5q25 0 85.5 39.5t98.5 79.5l29 -43q-64 -77 -160.5 -148.5t-169.5 -71.5q-26 0 -42 23.5t-20.5 83.5t19.5 164l121 561h-152l-6 18l51 62h123l47 194l156 127l18 -12l-71 -309h237z" />
    <glyph glyph-name="u" unicode="u" horiz-adv-x="1091" 
d="M1008 233l26 -49q-72 -87 -160 -148t-137 -61q-80 0 -30 218q13 58 38 180h-4q-165 -220 -329 -334q-89 -64 -166 -64q-24 0 -42 10.5t-32.5 36.5t-13.5 81t20 133q56 237 111 471q16 69 -6 69q-20 0 -144 -98l-22 49q86 86 172 139.5t129 53.5q36 0 41 -38t-19 -141
q-13 -55 -35 -154t-41 -181.5t-36 -155.5q-31 -135 24 -135q79 0 217 147.5t207 276.5q29 117 74 327l141 54h23q-96 -377 -160 -713q-15 -80 6 -80q15 0 62 33t86 73z" />
    <glyph glyph-name="v" unicode="v" horiz-adv-x="915" 
d="M449 178h4q44 54 87 112t101 143t93.5 161.5t35.5 124.5q0 54 -22 90q-9 24 0 51q11 26 35.5 43t52.5 17q37 0 62 -32.5t26 -84.5q0 -98 -127 -275q-182 -254 -424 -553h-56q-8 268 -38 637q-13 158 -37 158q-27 0 -121 -108l-33 45q61 87 129.5 150t114.5 63
q75 0 90 -228q4 -79 14 -251t13 -263z" />
    <glyph glyph-name="w" unicode="w" horiz-adv-x="1372" 
d="M936 186h4q289 396 289 529q0 46 -21 94q-14 24 0 51q11 25 34.5 42.5t49.5 17.5q39 0 63.5 -32t24.5 -85q0 -33 -13.5 -72t-27 -65.5t-43.5 -77.5q-81 -131 -432 -613h-57q-15 207 -57 639h-5q-99 -165 -391 -639h-53q-2 223 -20 660q-3 74 -10.5 104.5t-22.5 30.5
q-22 0 -121 -104l-35 41q69 92 140.5 152.5t121.5 60.5q35 0 53 -48.5t21 -154.5q6 -246 6 -484h4q37 64 118.5 201.5t145 246.5t117.5 208h51q10 -99 31 -337t35 -366z" />
    <glyph glyph-name="x" unicode="x" horiz-adv-x="968" 
d="M176 664l-35 43q147 213 244 213q38 0 63 -48t68 -176l37 -112q129 188 205 262t143 74q38 0 62 -26.5t24 -62.5q-1 -35 -28 -62.5t-52 -27.5q-13 0 -30 17q-18 24 -48 24q-43 0 -122 -102q-75 -86 -134 -168l66 -205q31 -99 55.5 -143.5t48.5 -44.5q47 0 148 119l35 -41
q-70 -107 -137.5 -164.5t-122.5 -57.5q-79 0 -136 189l-63 198q-137 -216 -219.5 -301.5t-155.5 -85.5q-39 0 -66 28.5t-26 70.5q0 36 26 66t56 30q16 0 33 -20q17 -21 47 -21q42 0 111 78t171 231l-69 213q-37 129 -68 129q-38 0 -131 -116z" />
    <glyph glyph-name="y" unicode="y" horiz-adv-x="905" 
d="M489 154h5q140 215 193 318q82 159 81 245q0 43 -23 96q-9 22 5 51q11 23 35.5 39.5t50.5 16.5q34 0 56.5 -31.5t22.5 -81.5q3 -86 -71 -217q-64 -114 -175.5 -287.5t-195.5 -292.5q-220 -317 -369 -481l-213 -55l-16 45q275 179 481 458q-1 118 -20.5 320.5t-42.5 347.5
q-17 127 -43 127q-13 0 -48 -34t-71 -85l-35 47q57 89 124 154.5t118 65.5q42 0 67 -58t37 -182q26 -205 47 -526z" />
    <glyph glyph-name="z" unicode="z" horiz-adv-x="856" 
d="M862 948l41 -43q-24 -31 -119 -137q-59 -67 -153 -166t-232.5 -241t-167.5 -173q63 6 156 -32q5 -2 37.5 -13.5t43 -14.5t34 -10t39 -9.5t30.5 -2.5q45 0 94.5 38.5t114.5 136.5l45 -37q-80 -159 -145 -222t-135 -63t-275 98q-84 42 -127 13q-32 -20 -65 -70
q-14 -20 -25 -18q-11 5 -18 14.5t-7 26.5t8.5 39t31.5 54t59 70q68 73 269.5 277t299.5 309q-66 -11 -127 -6q-106 12 -194 12q-65 0 -108.5 -42t-94.5 -132l-51 25q46 106 84 166q75 120 149 120q70 0 217 -24q110 -21 166 -21q53 0 125 78z" />
    <glyph glyph-name="braceleft" unicode="{" horiz-adv-x="692" 
d="M784 1454l-4 -55q-54 -7 -92 -23t-59.5 -42.5t-32.5 -54.5t-18 -67q-13 -73 -21 -194q-5 -150 -18 -223q-40 -199 -209 -236l-2 -8q127 -30 127 -170q0 -41 -11 -87t-32 -109t-29 -93q-4 -13 -16 -55t-19.5 -69t-14.5 -64.5t-7 -63.5q0 -111 137 -129l-12 -55
q-252 0 -252 194q0 94 65 312q0 1 14 49.5t20 71.5t13.5 60t7.5 58q0 55 -38.5 86.5t-110.5 36.5l12 60q50 3 87.5 17t58 30.5t35 43.5t19.5 45t11 46q9 45 21 182q14 145 35 252q49 254 335 254z" />
    <glyph glyph-name="bar" unicode="|" horiz-adv-x="489" 
d="M336 -512h-129v2048h129v-2048z" />
    <glyph glyph-name="braceright" unicode="}" horiz-adv-x="692" 
d="M598 584l-12 -58q-50 -3 -87 -17.5t-57.5 -30.5t-35 -43t-19 -44.5t-10.5 -46.5q-9 -45 -21 -182q-15 -155 -34 -252q-46 -254 -340 -254l8 55q100 14 143 60.5t57 124.5q16 96 23 196q14 201 18 223q40 198 205 236l2 8q-66 17 -97.5 69t-25.5 130q2 34 12.5 75.5
t31 103.5t26.5 81q4 15 15 51.5t17.5 60t13 55t7.5 54.5q5 70 -26.5 110t-108.5 50l14 55q38 0 71.5 -4.5t70 -19t61 -38t38.5 -64.5t9 -95q-2 -81 -63 -285q-4 -13 -16 -53.5t-18 -62t-12 -50.5t-7 -47q-5 -62 29.5 -103.5t117.5 -47.5z" />
    <glyph glyph-name="asciitilde" unicode="~" horiz-adv-x="1153" 
d="M1032 602l76 -41q-33 -110 -99.5 -170.5t-160.5 -60.5q-45 0 -95 15.5t-82 31.5t-85 47q-105 63 -185 63q-63 0 -106.5 -41t-77.5 -131l-74 52q91 223 269 223q58 0 109.5 -17.5t123.5 -58.5q72 -42 120.5 -62t94.5 -20q60 0 99.5 40t72.5 130z" />
    <glyph glyph-name="uni00A0" unicode="&#xa0;" horiz-adv-x="468" 
 />
    <glyph glyph-name="exclamdown" unicode="&#xa1;" horiz-adv-x="528" 
d="M457 805q0 -60 -36 -96.5t-89 -36.5q-46 0 -76.5 32t-30.5 82q0 60 36.5 96t90.5 36q44 0 74.5 -33t30.5 -80zM98 -469q-56 0 -79 13.5t-19 45.5q5 28 45 162q35 123 103.5 368.5t103.5 368.5q8 10 33 9.5t30 -9.5q-52 -503 -77 -735q-11 -123 -19 -166
q-6 -32 -34.5 -44.5t-86.5 -12.5z" />
    <glyph glyph-name="cent" unicode="&#xa2;" horiz-adv-x="976" 
d="M756 1270l-33 -164q138 0 213 -66q27 -21 27 -53q0 -29 -25.5 -55.5t-48.5 -26.5q-19 0 -33 19q-65 81 -151 92l-136 -709q20 -4 27 -4q136 0 268 111l31 -45q-79 -82 -170.5 -128.5t-177.5 -52.5l-39 -198h-72l39 200q-140 11 -234 110.5t-94 264.5q0 102 42 196.5
t111.5 163.5t160 115.5t188.5 61.5l33 168h74zM498 319l135 703q-150 -3 -234 -120.5t-84 -289.5q0 -121 52.5 -197t130.5 -96z" />
    <glyph glyph-name="sterling" unicode="&#xa3;" horiz-adv-x="976" 
d="M776 606h-336q-18 -137 -76 -229.5t-159 -173.5q88 0 215 -62q158 -71 242 -71q118 0 131 92q5 29 -5 67q-7 24 13 47q45 52 80 52q21 0 29.5 -28t0.5 -67q-9 -59 -56.5 -121t-113.5 -102q-102 -65 -190 -65q-19 0 -37.5 2.5t-42 11t-37.5 13t-43 19l-37 18.5t-42.5 23
t-37.5 21q-85 49 -131 49q-50 0 -100 -86q-12 -24 -29 -24q-12 5 -21.5 15t-9.5 31.5t21 47.5q36 48 117 121q137 126 145 399h-180l14 74h170q3 78 13 168q38 229 215 364q54 40 117.5 65.5t107.5 25.5q64 0 115 -28t65 -58q17 -33 0 -62q-9 -17 -41 -45q-31 -17 -53 8
q-28 27 -47.5 42t-52.5 28.5t-70 13.5q-73 0 -117.5 -52.5t-58.5 -150.5q-15 -99 -19 -319h349z" />
    <glyph glyph-name="currency" unicode="&#xa4;" horiz-adv-x="976" 
d="M971 276l-86 -83l-131 153q-100 -78 -224 -78t-221 78l-133 -153l-82 83l144 138q-91 108 -91 252q0 147 91 252l-144 139l82 82l133 -154q100 78 223 78q54 0 113.5 -20t106.5 -58l133 154l86 -82l-146 -139q90 -107 90 -252q0 -141 -90 -252zM532 963
q-111 0 -185.5 -83t-74.5 -214t75 -214t185 -83q111 0 185 83t74 214t-74 214t-185 83z" />
    <glyph glyph-name="yen" unicode="&#xa5;" horiz-adv-x="976" 
d="M1120 1276l-12 -53q-77 -9 -115 -34t-96 -104q-111 -155 -276 -407h223l-17 -72h-239l-31 -147h246l-17 -72h-243l-31 -180q-6 -27 -8.5 -44t-2 -33.5t2 -25t12 -17t18.5 -12.5t30 -8.5t38.5 -6t52.5 -5.5l-12 -55h-487l12 55q112 7 140 30t48 122l35 180h-233l16 72h229
l29 147h-231l14 72h213q-36 165 -111 440q-17 60 -44.5 79.5t-102.5 25.5l12 53h414l-12 -53l-62 -9q-38 -6 -49 -20.5t-2 -54.5q13 -64 46.5 -210.5t47.5 -213.5q15 24 62.5 97t77.5 119.5t66.5 105t55.5 91.5q24 46 15.5 64.5t-54.5 24.5l-55 6l12 53h375z" />
    <glyph glyph-name="brokenbar" unicode="&#xa6;" horiz-adv-x="489" 
d="M336 666h-129v716h129v-716zM336 -358h-129v716h129v-716z" />
    <glyph glyph-name="section" unicode="&#xa7;" horiz-adv-x="956" 
d="M866 440q0 -72 -24.5 -144t-66 -132.5t-82.5 -106.5t-89 -88q-172 -150 -334 -178q-85 0 -143 47q-36 28 -33 62q1 20 20.5 41t39.5 34q25 9 36 -4q1 0 11.5 -7.5t15 -10.5t17 -10.5t21 -11t22.5 -9.5t26 -8.5t27 -5t30 -2.5q64 0 116.5 37t55.5 100q0 94 -106 207
q-34 37 -92 108l-58 70q-126 145 -126 291q0 212 227 418q162 153 332 182q49 0 88 -16.5t57 -34.5q23 -23 23 -51q-1 -22 -19.5 -43t-34.5 -29q-19 -11 -35 2q-3 2 -17 13.5t-25.5 19t-30.5 17.5t-43 15t-51 5q-67 0 -108.5 -40.5t-41.5 -89.5q0 -63 64 -139
q165 -177 167 -180q164 -167 164 -328zM373 1040l-4 4q-48 -45 -77.5 -109.5t-29.5 -135.5q0 -133 105 -250l100 -113q113 -128 143 -198q32 -75 21 -154l4 -2q106 115 106 260q0 69 -21.5 134t-86.5 140q-16 18 -193 222q-81 92 -67 202z" />
    <glyph glyph-name="dieresis" unicode="&#xa8;" 
d="M385 1292q37 0 57.5 -25t20.5 -61q0 -48 -29 -80t-74 -32q-34 0 -56.5 23t-22.5 61q0 41 28.5 77.5t75.5 36.5zM745 1292q37 0 57.5 -25t20.5 -61q0 -48 -28.5 -80t-73.5 -32q-34 0 -57 23t-23 61q0 41 28.5 77.5t75.5 36.5z" />
    <glyph glyph-name="copyright" unicode="&#xa9;" horiz-adv-x="1419" 
d="M760 1282q174 0 315.5 -83t221 -225.5t79.5 -314.5q0 -171 -79.5 -313t-221 -224.5t-315.5 -82.5t-316 82.5t-221.5 224.5t-79.5 313q0 129 47.5 244t129 198.5t196 132t244.5 48.5zM762 1212q-148 0 -268 -72.5t-187 -198t-67 -279.5t67 -280.5t187 -199.5t268 -73
q223 0 371.5 159.5t148.5 393.5t-148.5 392t-371.5 158zM1026 539l47 -11q-38 -153 -51 -184q-120 -39 -217 -39q-96 0 -172.5 30t-122.5 80.5t-70 111t-24 126.5q0 111 55.5 195t145 126t196.5 42q122 0 215 -35q7 -47 23 -186l-45 -9q-34 87 -81.5 128.5t-125.5 41.5
q-108 0 -171 -80t-63 -208q0 -133 68.5 -217t171.5 -84q78 0 130 43t91 129z" />
    <glyph glyph-name="ordfeminine" unicode="&#xaa;" horiz-adv-x="677" 
d="M696 727l19 -41q-52 -56 -111 -93.5t-88 -37.5q-56 0 -35 102l25 113h-6q-72 -88 -164 -156q-86 -59 -127 -59q-29 0 -51.5 31t-22.5 106q0 93 42.5 186.5t101.5 145.5q49 43 124 74.5t142 31.5q30 0 71 -8q27 -6 70 -6q-60 -252 -80 -391q-7 -57 4 -57q27 0 86 59z
M477 1063q-40 0 -69 -16q-52 -27 -95 -113q-21 -46 -34 -103t-13 -100q0 -67 29 -67q16 0 50 21.5t69 57.5q50 53 94 121q15 22 30 80t21 100q-34 19 -82 19z" />
    <glyph glyph-name="guillemotleft" unicode="&#xab;" horiz-adv-x="913" 
d="M506 793l-221 -340l151 -342l-49 -31q-168 248 -272 373q119 112 348 372zM840 793l-224 -340l154 -342l-49 -31q-186 270 -275 373q118 111 351 372z" />
    <glyph glyph-name="logicalnot" unicode="&#xac;" horiz-adv-x="1220" 
d="M1104 199h-117v454h-862v101h979v-555z" />
    <glyph glyph-name="uni00AD" unicode="&#xad;" horiz-adv-x="684" 
d="M610 518l-37 -112h-471l37 112h471z" />
    <glyph glyph-name="registered" unicode="&#xae;" horiz-adv-x="641" 
d="M408 1354q114 0 190 -77.5t76 -186.5q0 -107 -76.5 -185t-189.5 -78q-112 0 -187.5 76t-75.5 187q0 108 77 186t186 78zM410 1307q-90 0 -148.5 -62.5t-58.5 -154.5t59.5 -154t147.5 -62q89 0 147.5 61.5t58.5 154.5q0 92 -58.5 154.5t-147.5 62.5zM559 973l-6 -25
q-36 0 -59 9.5t-41 33.5q-33 52 -39 62q-9 14 -25 14h-8v-45q0 -27 5.5 -32.5t31.5 -8.5v-31h-137v31q28 3 33 8.5t5 32.5v139q0 27 -4.5 32t-31.5 7v31h139q98 0 98 -74q0 -50 -55 -70q26 -49 67 -92q12 -15 27 -22zM381 1176v-74h16q19 0 35 8q23 16 23 43
q0 26 -15.5 36.5t-33.5 10.5q-14 0 -19.5 -5t-5.5 -19z" />
    <glyph glyph-name="macron" unicode="&#xaf;" 
d="M774 1225l-24 -105h-459l26 105h457z" />
    <glyph glyph-name="degree" unicode="&#xb0;" horiz-adv-x="716" 
d="M483 1360q117 0 195 -72.5t78 -195.5q0 -130 -88.5 -211.5t-218.5 -81.5q-117 0 -194 72t-77 192q0 127 90.5 212t214.5 85zM479 1278q-78 0 -130 -59.5t-52 -153.5q0 -80 43.5 -132t116.5 -52q84 0 134 60t50 146q0 84 -43.5 137.5t-118.5 53.5z" />
    <glyph glyph-name="plusminus" unicode="&#xb1;" horiz-adv-x="1220" 
d="M1116 637h-438v-418h-117v418h-440v100h440v391h117v-391h438v-100zM1116 0h-995v102h995v-102z" />
    <glyph glyph-name="twosuperior" unicode="&#xb2;" horiz-adv-x="667" 
d="M633 999l43 -18q-52 -104 -80 -170h-496l6 37q135 99 240 190q44 40 70.5 66.5t59.5 66t49 77.5t16 75q0 57 -30.5 90t-92.5 33q-27 0 -52 -10t-49 -31t-37 -35t-36 -41l-37 35l82 100q74 80 188 80q86 0 145.5 -52.5t59.5 -145.5q0 -25 -7.5 -50.5t-17 -46t-30 -45
t-34 -39.5t-42.5 -39.5t-42.5 -35.5t-46 -36t-42.5 -32l-127 -100v-4h190q55 0 83 14.5t67 66.5z" />
    <glyph glyph-name="threesuperior" unicode="&#xb3;" horiz-adv-x="667" 
d="M272 1360l-34 33l63 75q69 76 180 76q72 0 124 -39.5t52 -109.5q0 -84 -135 -150v-4q57 -14 99.5 -55.5t42.5 -104.5q0 -139 -175 -231q-102 -51 -184 -51q-48 0 -88.5 15.5t-56.5 33.5q-25 28 -15 53q15 37 43 51q22 13 43 -8q76 -67 152 -67q59 0 100 41.5t41 111.5
q0 69 -39 104t-100 35q-45 0 -76 -14l-10 49q98 22 161 65.5t62 100.5q0 41 -25 64.5t-69 23.5q-81 0 -156 -98z" />
    <glyph glyph-name="acute" unicode="&#xb4;" 
d="M782 1354l-317 -348l-47 32q47 73 108.5 178.5t79.5 139.5q20 7 84.5 15.5t85.5 4.5z" />
    <glyph glyph-name="mu" unicode="&#xb5;" horiz-adv-x="1046" 
d="M954 231l29 -47q-71 -87 -159.5 -148t-135.5 -61q-83 0 -33 218q29 127 39 174h-6q-152 -219 -282 -326q-81 -66 -144 -66t-84 91h-4q-19 -61 -31 -146.5t-8 -155.5q3 -75 22 -135t42 -80l2 -14q-14 -24 -47 -43.5t-72 -19.5q-35 0 -58 38t-20 109q5 110 76 408
q116 518 188 850l148 43l14 -11q-64 -265 -145 -628q-17 -82 -3.5 -126t48.5 -44q48 0 129.5 77.5t152 173t113.5 175.5q37 151 72 329l143 54h23q-96 -379 -160 -715q-15 -80 6 -80q14 0 59.5 33t85.5 73z" />
    <glyph glyph-name="paragraph" unicode="&#xb6;" horiz-adv-x="999" 
d="M1090 1098l-72 -51l-168 -21l-188 -969q-24 -129 -72.5 -223t-134.5 -168q-48 -40 -105.5 -66t-83.5 -26q-40 0 -75.5 14.5t-51.5 34.5q-28 28 -16 60q13 32 45 55q22 18 43 0q59 -45 129 -45q35 0 61.5 12t55 47.5t53.5 108t47 184.5l51 268l-133 -55q-12 -6 -37 -6
q-106 0 -189 106t-83 254q0 149 78 268t200.5 181.5t260.5 62.5h380z" />
    <glyph glyph-name="periodcentered" unicode="&#xb7;" horiz-adv-x="481" 
d="M248 352q-46 0 -74.5 30t-28.5 77q0 57 33.5 94t87.5 37q44 0 72.5 -31.5t28.5 -79.5q0 -60 -35 -93.5t-84 -33.5z" />
    <glyph glyph-name="cedilla" unicode="&#xb8;" 
d="M416 0l-43 -51q-22 -28 -22.5 -42.5t22.5 -41.5q64 -75 61 -135q-4 -59 -74 -115.5t-174 -87.5l-26 55q137 61 143 123q1 11 -3.5 23t-8.5 18.5t-13.5 19.5t-11.5 15q-32 37 -35 59.5t25 59.5l82 100h78z" />
    <glyph glyph-name="onesuperior" unicode="&#xb9;" horiz-adv-x="667" 
d="M588 856l-13 -45h-389l11 45q83 8 108 26t39 91l72 370q11 60 2 73t-60 18l-57 6l10 43q124 17 273 61l-111 -571q-5 -26 -6 -43t4 -30t11 -20t23.5 -12t33.5 -7t49 -5z" />
    <glyph glyph-name="ordmasculine" unicode="&#xba;" horiz-adv-x="643" 
d="M483 1130q88 0 140.5 -54.5t52.5 -151.5q0 -84 -34.5 -162t-100.5 -131q-46 -35 -99.5 -55.5t-95.5 -20.5q-94 0 -144 59.5t-50 149.5q-1 108 51 195t131 131q73 40 149 40zM446 1073q-13 0 -43 -10q-45 -18 -82.5 -93.5t-37.5 -197.5q0 -72 25.5 -113t74.5 -41
q23 0 41 9q45 15 84.5 103t38.5 204q-1 66 -28 102.5t-73 36.5z" />
    <glyph glyph-name="guillemotright" unicode="&#xbb;" horiz-adv-x="913" 
d="M195 795l49 30q187 -271 274 -372q-125 -115 -350 -373l-43 33l223 340zM528 795l50 30q164 -243 272 -372q-130 -123 -348 -373l-43 33l221 340z" />
    <glyph glyph-name="onequarter" unicode="&#xbc;" horiz-adv-x="1529" 
d="M1356 1292l-1030 -1347l-56 51l1030 1345zM559 614l-10 -47h-393l12 45q82 9 106.5 27t38.5 90l74 371q10 62 1.5 73.5t-60.5 16.5l-58 6l13 45q115 13 272 62l-111 -574q-5 -26 -6.5 -42.5t4 -29t11 -19t24 -11.5t33.5 -7t49 -6zM1356 272l-15 -73h-118l-11 -49
q-4 -23 -5 -38.5t3 -26.5t9.5 -17.5t20.5 -11t28.5 -6.5t40.5 -5l-11 -45h-360l10 45q84 8 108.5 23.5t35.5 78.5l10 52h-332l8 49q213 235 463 485h86l-90 -461h119zM1180 590h-4q-151 -163 -285 -318h223z" />
    <glyph glyph-name="onehalf" unicode="&#xbd;" horiz-adv-x="1515" 
d="M1329 1292l-1032 -1347l-55 51l1030 1345zM545 614l-10 -47h-394l13 47q83 8 108 25.5t39 89.5l72 371q6 33 7.5 48.5t-6.5 25t-19 11.5t-40 5l-57 6l10 45q122 14 273 62l-111 -574q-5 -26 -6 -42.5t4 -29.5t11 -19.5t23.5 -11.5t33.5 -7t49 -5zM1346 188l40 -18
q-26 -50 -77 -170h-498l8 37q164 125 238 192q43 38 70.5 64.5t59.5 64.5t48 76.5t16 77.5q0 56 -30.5 88.5t-92.5 32.5q-27 0 -51 -9t-49.5 -31t-36.5 -33.5t-37 -41.5l-34 35l79 100q76 82 197 82q80 0 138.5 -54.5t58.5 -145.5q0 -26 -7.5 -51.5t-17.5 -46t-29.5 -44.5
t-34.5 -40t-42.5 -39t-43 -35.5t-46 -35.5t-42.5 -32l-124 -100v-5h188q55 0 83 15t69 67z" />
    <glyph glyph-name="threequarters" unicode="&#xbe;" horiz-adv-x="1515" 
d="M1380 1292l-1032 -1347l-55 51l1030 1345zM295 1116l-35 33l64 78q65 76 180 76q72 0 124 -41t52 -111q0 -84 -135 -150v-4q57 -14 99 -55t42 -104q0 -141 -170 -232q-102 -51 -188 -51q-48 0 -88 15.5t-56 33.5q-24 28 -16 53q6 15 18.5 30.5t24.5 21.5q20 14 43 -9
q81 -71 149 -71q60 0 102 43t42 114q0 68 -39.5 104t-99.5 36q-42 0 -76 -15l-13 50q100 22 163 65t63 100q0 41 -25 64.5t-71 23.5q-83 0 -154 -98zM1374 272l-12 -73h-119l-10 -49q-13 -65 4 -81t90 -24l-8 -45h-361l9 45q86 8 109.5 23.5t35.5 78.5l8 52h-332l11 49
q246 271 463 485h84l-91 -461h119zM1196 590q-151 -163 -285 -318h224z" />
    <glyph glyph-name="questiondown" unicode="&#xbf;" horiz-adv-x="733" 
d="M473 920q46 0 75.5 -32.5t29.5 -82.5q0 -60 -35.5 -96.5t-87.5 -36.5q-47 0 -77 31.5t-30 82.5q0 59 36.5 96.5t88.5 37.5zM338 457l37 41q70 -39 126 -102.5t56 -133.5q0 -75 -58.5 -136.5t-160.5 -123.5q-130 -79 -174 -117q-76 -65 -76 -123q0 -47 31.5 -74.5
t83.5 -27.5q47 0 90.5 16t68.5 35t46 35t28 16q24 0 47 -25.5t23 -55.5q0 -43 -57 -82q-47 -32 -101.5 -50t-87.5 -18q-109 0 -189.5 89.5t-80.5 209.5q0 70 32 121.5t103 99.5q21 13 54.5 34.5t50.5 33t43.5 29.5t40.5 29t32.5 26.5t28 27.5t19 26.5t13 28.5t3.5 29
q0 70 -72 142z" />
    <glyph glyph-name="Agrave" unicode="&#xc0;" horiz-adv-x="1359" 
d="M1272 55l-15 -55h-483l14 55q71 7 101 19t38 37.5t-1 68.5q-7 46 -25 147t-27 156h-428q-102 -192 -143 -278q-16 -33 -23.5 -53t-8 -37.5t6 -26.5t26 -16t44.5 -10.5t68 -6.5l-13 -55h-440l14 55q53 7 78 13t53.5 28t50.5 55t60 101l617 1091l63 17l57 -363
q53 -340 131 -764q10 -60 18.5 -88t29.5 -49.5t50 -28t87 -12.5zM862 569l-82 531h-4q-228 -420 -284 -531h370zM967 1452l-29 -51l-387 129l-4 14q6 24 37 67t49 50q283 -177 334 -209z" />
    <glyph glyph-name="Aacute" unicode="&#xc1;" horiz-adv-x="1359" 
d="M1272 55l-15 -55h-483l14 55q71 7 101 19t38 37.5t-1 68.5q-7 46 -25 147t-27 156h-428q-102 -192 -143 -278q-16 -33 -23.5 -53t-8 -37.5t6 -26.5t26 -16t44.5 -10.5t68 -6.5l-13 -55h-440l14 55q53 7 78 13t53.5 28t50.5 55t60 101l617 1091l63 17l57 -363
q53 -340 131 -764q10 -60 18.5 -88t29.5 -49.5t50 -28t87 -12.5zM862 569l-82 531h-4q-228 -420 -284 -531h370zM1167 1546l-4 -16l-383 -129l-26 49q263 168 329 209q19 -4 49 -46t35 -67z" />
    <glyph glyph-name="Acircumflex" unicode="&#xc2;" horiz-adv-x="1359" 
d="M1272 55l-15 -55h-483l14 55q71 7 101 19t38 37.5t-1 68.5q-7 46 -25 147t-27 156h-428q-102 -192 -143 -278q-16 -33 -23.5 -53t-8 -37.5t6 -26.5t26 -16t44.5 -10.5t68 -6.5l-13 -55h-440l14 55q53 7 78 13t53.5 28t50.5 55t60 101l617 1091l63 17l57 -363
q53 -340 131 -764q10 -60 18.5 -88t29.5 -49.5t50 -28t87 -12.5zM862 569l-82 531h-4q-228 -420 -284 -531h370zM1143 1446l-37 -45q-93 39 -219 119q-153 -84 -258 -119l-25 45q168 112 277 213h51q89 -106 211 -213z" />
    <glyph glyph-name="Atilde" unicode="&#xc3;" horiz-adv-x="1359" 
d="M1272 55l-15 -55h-483l14 55q71 7 101 19t38 37.5t-1 68.5q-7 46 -25 147t-27 156h-428q-102 -192 -143 -278q-16 -33 -23.5 -53t-8 -37.5t6 -26.5t26 -16t44.5 -10.5t68 -6.5l-13 -55h-440l14 55q53 7 78 13t53.5 28t50.5 55t60 101l617 1091l63 17l57 -363
q53 -340 131 -764q10 -60 18.5 -88t29.5 -49.5t50 -28t87 -12.5zM862 569l-82 531h-4q-228 -420 -284 -531h370zM1100 1622l51 -33q-60 -164 -166 -164q-12 0 -24.5 2t-28.5 8t-24.5 9.5t-31.5 14.5t-30 14q-58 24 -84 24q-50 0 -96 -90l-52 37q35 88 78.5 126t85.5 38
q43 0 121 -37q8 -3 24.5 -10t24 -9.5t19 -6.5t20.5 -5.5t19 -1.5q26 0 46.5 19.5t47.5 64.5z" />
    <glyph glyph-name="Adieresis" unicode="&#xc4;" horiz-adv-x="1359" 
d="M1272 55l-15 -55h-483l14 55q71 7 101 19t38 37.5t-1 68.5q-7 46 -25 147t-27 156h-428q-102 -192 -143 -278q-16 -33 -23.5 -53t-8 -37.5t6 -26.5t26 -16t44.5 -10.5t68 -6.5l-13 -55h-440l14 55q53 7 78 13t53.5 28t50.5 55t60 101l617 1091l63 17l57 -363
q53 -340 131 -764q10 -60 18.5 -88t29.5 -49.5t50 -28t87 -12.5zM862 569l-82 531h-4q-228 -420 -284 -531h370zM694 1616q37 0 58.5 -24.5t21.5 -61.5q0 -47 -29 -80t-73 -33q-35 0 -57.5 23.5t-24.5 60.5q0 43 28.5 79t75.5 36zM1075 1616q37 0 58.5 -24.5t21.5 -61.5
q0 -47 -29.5 -80t-74.5 -33q-34 0 -57 24t-23 60q0 43 28.5 79t75.5 36z" />
    <glyph glyph-name="Aring" unicode="&#xc5;" horiz-adv-x="1359" 
d="M1272 55l-15 -55h-483l14 55q71 7 101 19t38 37.5t-1 68.5q-7 46 -25 147t-27 156h-428q-102 -192 -143 -278q-16 -33 -23.5 -53t-8 -37.5t6 -26.5t26 -16t44.5 -10.5t68 -6.5l-13 -55h-440l14 55q53 7 78 13t53.5 28t50.5 55t60 101l617 1091l63 17l57 -363
q53 -340 131 -764q10 -60 18.5 -88t29.5 -49.5t50 -28t87 -12.5zM862 569l-82 531h-4q-228 -420 -284 -531h370zM1065 1585q-1 -78 -60 -127t-135 -49q-72 0 -118 45.5t-43 114.5q1 83 58 133.5t134 50.5q70 0 118.5 -46.5t45.5 -121.5zM973 1587q2 44 -18.5 72.5
t-59.5 28.5q-40 0 -66 -32.5t-28 -80.5q-2 -42 19.5 -69t58.5 -27q39 0 66 30.5t28 77.5z" />
    <glyph glyph-name="AE" unicode="&#xc6;" horiz-adv-x="1769" 
d="M1741 1022l-60 -4q-3 127 -28 180q-18 37 -58.5 50.5t-150.5 13.5h-154q-51 0 -63 -11t-23 -67l-94 -498h199q46 0 74.5 1.5t53.5 8.5t38.5 15.5t27.5 28.5t22.5 40t22.5 58h60l-78 -392h-60q1 42 0 63t-7 43t-16 30t-32.5 15.5t-50.5 9t-76 1.5h-192l-60 -321
q-15 -88 -13 -129t24 -60q23 -18 68.5 -23t141.5 -5q115 0 170 13.5t97 53.5q63 58 137 195l57 -21q-5 -11 -57 -143t-70 -168h-960l12 53q48 5 72.5 8t51 12t37.5 19.5t23.5 34t19 50t15.5 73.5l72 358h-359q-204 -298 -274 -424q-38 -65 -29 -87t74 -31l64 -11l-13 -55
h-473l13 55q69 9 103.5 20.5t71.5 43.5t87 100q106 143 227 314t256 364.5t197 280.5q34 46 24 61t-76 23l-108 10l16 57h1041q-7 -69 -35 -307zM631 686h317l115 574q-26 0 -62 -33q-144 -207 -370 -541z" />
    <glyph glyph-name="Ccedilla" unicode="&#xc7;" horiz-adv-x="1304" 
d="M631 -104l63 75q-246 6 -400.5 161.5t-154.5 420.5q0 231 108 415t303.5 288t442.5 104q35 0 68.5 -2t64.5 -6.5t55 -8.5t51.5 -11t41.5 -10.5t38 -10.5t27 -8q-2 -31 -6.5 -147.5t-9.5 -174.5l-61 -6q-4 92 -28 154.5t-67 97t-96 49t-125 14.5q-134 0 -250 -60
t-193 -160.5t-121 -231.5t-44 -273q0 -237 105.5 -380t293.5 -142q77 0 143 23t121.5 70.5t99 100.5t93.5 130l53 -25q-30 -79 -76 -175.5t-79 -146.5q-10 -2 -50.5 -11t-75 -16t-90.5 -14t-110 -8l-21 -24q-24 -30 -24 -45t24 -43q67 -78 64 -140t-74.5 -118.5
t-181.5 -87.5l-21 51q143 65 148 125q1 11 -0.5 20t-7.5 19t-8 14t-12 16l-11 13q-35 39 -37.5 63t27.5 62z" />
    <glyph glyph-name="Egrave" unicode="&#xc8;" horiz-adv-x="1144" 
d="M262 1329h891q-10 -60 -39 -313l-59 -4q-3 132 -27 180q-13 26 -29 39.5t-56.5 22t-113.5 8.5h-159q-51 0 -64.5 -13t-25.5 -71l-84 -445h196q46 0 74 1.5t52.5 8.5t37 14.5t26.5 28t22 40t22 57.5h59l-78 -387h-57q1 26 1 39.5t-1 31.5t-2.5 26t-6.5 19.5t-10.5 15.5
t-16 10.5t-22 8t-30.5 3.5t-38.5 2.5t-47.5 0.5h-197l-67 -358q-17 -89 -15 -133.5t25 -63.5q22 -18 67 -23t140 -5q114 0 170.5 14.5t97.5 54.5q59 57 137 197l58 -21q-5 -12 -57.5 -145t-69.5 -170h-959l12 55q47 4 72 7t50 12t36 19t23 33t18.5 48.5t15.5 71.5l162 839
q9 46 13 70.5t1 48t-10.5 33t-29.5 19t-47 13t-72 7.5zM899 1454l-27 -53l-387 131l-4 14q6 25 36.5 67.5t49.5 49.5q53 -34 164.5 -103.5t167.5 -105.5z" />
    <glyph glyph-name="Eacute" unicode="&#xc9;" horiz-adv-x="1144" 
d="M262 1329h891q-10 -60 -39 -313l-59 -4q-3 132 -27 180q-13 26 -29 39.5t-56.5 22t-113.5 8.5h-159q-51 0 -64.5 -13t-25.5 -71l-84 -445h196q46 0 74 1.5t52.5 8.5t37 14.5t26.5 28t22 40t22 57.5h59l-78 -387h-57q1 26 1 39.5t-1 31.5t-2.5 26t-6.5 19.5t-10.5 15.5
t-16 10.5t-22 8t-30.5 3.5t-38.5 2.5t-47.5 0.5h-197l-67 -358q-17 -89 -15 -133.5t25 -63.5q22 -18 67 -23t140 -5q114 0 170.5 14.5t97.5 54.5q59 57 137 197l58 -21q-5 -12 -57.5 -145t-69.5 -170h-959l12 55q47 4 72 7t50 12t36 19t23 33t18.5 48.5t15.5 71.5l162 839
q9 46 13 70.5t1 48t-10.5 33t-29.5 19t-47 13t-72 7.5zM1051 1546l-4 -16l-385 -129l-27 51q225 141 330 209q19 -6 49.5 -47.5t36.5 -67.5z" />
    <glyph glyph-name="Ecircumflex" unicode="&#xca;" horiz-adv-x="1144" 
d="M262 1329h891q-10 -60 -39 -313l-59 -4q-3 132 -27 180q-13 26 -29 39.5t-56.5 22t-113.5 8.5h-159q-51 0 -64.5 -13t-25.5 -71l-84 -445h196q46 0 74 1.5t52.5 8.5t37 14.5t26.5 28t22 40t22 57.5h59l-78 -387h-57q1 26 1 39.5t-1 31.5t-2.5 26t-6.5 19.5t-10.5 15.5
t-16 10.5t-22 8t-30.5 3.5t-38.5 2.5t-47.5 0.5h-197l-67 -358q-17 -89 -15 -133.5t25 -63.5q22 -18 67 -23t140 -5q114 0 170.5 14.5t97.5 54.5q59 57 137 197l58 -21q-5 -12 -57.5 -145t-69.5 -170h-959l12 55q47 4 72 7t50 12t36 19t23 33t18.5 48.5t15.5 71.5l162 839
q9 46 13 70.5t1 48t-10.5 33t-29.5 19t-47 13t-72 7.5zM1034 1446l-39 -45q-97 41 -217 119q-158 -85 -258 -119l-26 45q155 100 278 213h49q92 -111 213 -213z" />
    <glyph glyph-name="Edieresis" unicode="&#xcb;" horiz-adv-x="1144" 
d="M262 1329h891q-10 -60 -39 -313l-59 -4q-3 132 -27 180q-13 26 -29 39.5t-56.5 22t-113.5 8.5h-159q-51 0 -64.5 -13t-25.5 -71l-84 -445h196q46 0 74 1.5t52.5 8.5t37 14.5t26.5 28t22 40t22 57.5h59l-78 -387h-57q1 26 1 39.5t-1 31.5t-2.5 26t-6.5 19.5t-10.5 15.5
t-16 10.5t-22 8t-30.5 3.5t-38.5 2.5t-47.5 0.5h-197l-67 -358q-17 -89 -15 -133.5t25 -63.5q22 -18 67 -23t140 -5q114 0 170.5 14.5t97.5 54.5q59 57 137 197l58 -21q-5 -12 -57.5 -145t-69.5 -170h-959l12 55q47 4 72 7t50 12t36 19t23 33t18.5 48.5t15.5 71.5l162 839
q9 46 13 70.5t1 48t-10.5 33t-29.5 19t-47 13t-72 7.5zM598 1616q38 0 59 -24.5t21 -61.5q0 -46 -29.5 -79.5t-73.5 -33.5q-34 0 -56.5 23.5t-22.5 60.5q0 43 27.5 79t74.5 36zM979 1616q38 0 59 -24.5t21 -61.5q0 -46 -29.5 -79.5t-73.5 -33.5q-35 0 -57 23.5t-22 60.5
q0 43 27.5 79t74.5 36z" />
    <glyph glyph-name="Igrave" unicode="&#xcc;" horiz-adv-x="686" 
d="M778 1329l-12 -53q-45 -4 -69 -7.5t-47 -12.5t-33 -17.5t-21 -30.5t-16 -44t-13 -64l-166 -862q-8 -43 -11.5 -68t0 -47t11.5 -31.5t30 -18.5t47.5 -12t72.5 -6l-12 -55h-525l15 55q44 3 69 6.5t48 12t34 18.5t22 32.5t16.5 46t14.5 67.5l166 862q8 41 11 64.5t-1 44
t-12 30t-31.5 18t-48.5 11.5t-73 8l14 53h520zM674 1452l-29 -51l-387 129l-4 14q6 24 37 67t49 50q40 -25 108.5 -67.5t123.5 -77t102 -64.5z" />
    <glyph glyph-name="Iacute" unicode="&#xcd;" horiz-adv-x="686" 
d="M778 1329l-12 -53q-45 -4 -69 -7.5t-47 -12.5t-33 -17.5t-21 -30.5t-16 -44t-13 -64l-166 -862q-8 -43 -11.5 -68t0 -47t11.5 -31.5t30 -18.5t47.5 -12t72.5 -6l-12 -55h-525l15 55q44 3 69 6.5t48 12t34 18.5t22 32.5t16.5 46t14.5 67.5l166 862q8 41 11 64.5t-1 44
t-12 30t-31.5 18t-48.5 11.5t-73 8l14 53h520zM815 1546l-4 -16l-385 -129l-27 49q173 108 330 209q19 -4 50 -46t36 -67z" />
    <glyph glyph-name="Icircumflex" unicode="&#xce;" horiz-adv-x="686" 
d="M778 1329l-12 -53q-45 -4 -69 -7.5t-47 -12.5t-33 -17.5t-21 -30.5t-16 -44t-13 -64l-166 -862q-8 -43 -11.5 -68t0 -47t11.5 -31.5t30 -18.5t47.5 -12t72.5 -6l-12 -55h-525l15 55q44 3 69 6.5t48 12t34 18.5t22 32.5t16.5 46t14.5 67.5l166 862q8 41 11 64.5t-1 44
t-12 30t-31.5 18t-48.5 11.5t-73 8l14 53h520zM799 1446l-37 -45q-102 43 -219 119q-158 -85 -258 -119l-27 45q158 103 279 213h51q88 -109 211 -213z" />
    <glyph glyph-name="Idieresis" unicode="&#xcf;" horiz-adv-x="686" 
d="M778 1329l-12 -53q-45 -4 -69 -7.5t-47 -12.5t-33 -17.5t-21 -30.5t-16 -44t-13 -64l-166 -862q-8 -43 -11.5 -68t0 -47t11.5 -31.5t30 -18.5t47.5 -12t72.5 -6l-12 -55h-525l15 55q44 3 69 6.5t48 12t34 18.5t22 32.5t16.5 46t14.5 67.5l166 862q8 41 11 64.5t-1 44
t-12 30t-31.5 18t-48.5 11.5t-73 8l14 53h520zM360 1616q37 0 58.5 -24.5t21.5 -61.5q0 -47 -29.5 -80t-74.5 -33q-34 0 -57 24t-23 60q0 43 28.5 79t75.5 36zM741 1616q37 0 57.5 -24.5t20.5 -61.5q0 -47 -28.5 -80t-73.5 -33q-34 0 -57 24t-23 60q0 43 28.5 79t75.5 36z
" />
    <glyph glyph-name="Eth" unicode="&#xd0;" horiz-adv-x="1472" 
d="M285 1329h508q148 0 265.5 -31.5t206 -96t136 -171.5t47.5 -250q0 -192 -90.5 -356.5t-251.5 -269.5q-131 -84 -281 -119t-350 -35h-438l14 55q45 5 67.5 8t46.5 11.5t34 18t22 32t18 47.5t15 70l80 415h-223l16 76h221l68 344q7 36 10.5 59t3 44.5t-1.5 33t-11.5 23
t-19 16t-31.5 10t-40.5 7.5t-55.5 6zM502 657l-72 -378q-16 -89 -11.5 -125t36.5 -54q48 -26 139 -26q135 1 247 43t186.5 112t126 163.5t74.5 194.5t23 208q0 98 -23.5 178.5t-75 147t-144.5 104t-220 37.5q-103 0 -145 -17q-19 -9 -28 -26t-17 -54l-82 -432h318l-17 -76
h-315z" />
    <glyph glyph-name="Ntilde" unicode="&#xd1;" horiz-adv-x="1443" 
d="M1569 1329l-13 -53q-89 -6 -123 -32t-55 -97q-34 -114 -78 -348l-155 -815h-62l-606 1085h-6l-106 -545q-48 -241 -54 -344q-3 -69 31.5 -93t142.5 -32l-12 -55h-469l12 55q82 5 121.5 30t59.5 89q33 98 86 356l106 504q14 79 11.5 111t-23.5 67q-19 32 -53.5 45
t-120.5 19l12 53h295l604 -1042h8l95 512q47 240 55 350q4 72 -29.5 95.5t-148.5 31.5l14 53h461zM1128 1612l52 -33q-32 -89 -75.5 -126.5t-88.5 -37.5q-20 0 -46.5 8t-39.5 14t-53 25q-60 25 -84 25q-53 0 -99 -90l-49 37q63 163 164 163q42 0 121 -36q6 -2 20 -8.5
t19.5 -8.5l16.5 -6t17.5 -5.5t14.5 -3t16 -1.5q28 0 48.5 19.5t45.5 64.5z" />
    <glyph glyph-name="Ograve" unicode="&#xd2;" horiz-adv-x="1449" 
d="M881 1362q243 0 393.5 -164.5t150.5 -423.5q0 -161 -56 -308.5t-153 -257t-237 -174.5t-299 -65q-242 0 -393.5 161.5t-151.5 420.5q0 213 96.5 398.5t269.5 299t380 113.5zM864 1290q-116 0 -218 -68t-169.5 -177t-106 -243.5t-38.5 -269.5q0 -141 38 -249.5t121.5 -175
t204.5 -66.5q99 0 186.5 46t150 122.5t108 174.5t68 203.5t22.5 207.5q0 106 -20.5 193t-63 156t-114.5 107.5t-169 38.5zM1057 1470l-29 -51l-387 129l-4 15q6 24 37 66.5t49 49.5q283 -177 334 -209z" />
    <glyph glyph-name="Oacute" unicode="&#xd3;" horiz-adv-x="1449" 
d="M881 1362q243 0 393.5 -164.5t150.5 -423.5q0 -161 -56 -308.5t-153 -257t-237 -174.5t-299 -65q-242 0 -393.5 161.5t-151.5 420.5q0 213 96.5 398.5t269.5 299t380 113.5zM864 1290q-116 0 -218 -68t-169.5 -177t-106 -243.5t-38.5 -269.5q0 -141 38 -249.5t121.5 -175
t204.5 -66.5q99 0 186.5 46t150 122.5t108 174.5t68 203.5t22.5 207.5q0 106 -20.5 193t-63 156t-114.5 107.5t-169 38.5zM1145 1565l-6 -17l-383 -129l-27 49q62 39 175 111t155 98q19 -4 49 -45.5t37 -66.5z" />
    <glyph glyph-name="Ocircumflex" unicode="&#xd4;" horiz-adv-x="1449" 
d="M881 1362q243 0 393.5 -164.5t150.5 -423.5q0 -161 -56 -308.5t-153 -257t-237 -174.5t-299 -65q-242 0 -393.5 161.5t-151.5 420.5q0 213 96.5 398.5t269.5 299t380 113.5zM864 1290q-116 0 -218 -68t-169.5 -177t-106 -243.5t-38.5 -269.5q0 -141 38 -249.5t121.5 -175
t204.5 -66.5q99 0 186.5 46t150 122.5t108 174.5t68 203.5t22.5 207.5q0 106 -20.5 193t-63 156t-114.5 107.5t-169 38.5zM1155 1464l-37 -47q-106 47 -219 119q-140 -76 -258 -119l-27 47q163 103 279 213l51 -2q90 -106 211 -211z" />
    <glyph glyph-name="Otilde" unicode="&#xd5;" horiz-adv-x="1449" 
d="M881 1362q243 0 393.5 -164.5t150.5 -423.5q0 -161 -56 -308.5t-153 -257t-237 -174.5t-299 -65q-242 0 -393.5 161.5t-151.5 420.5q0 213 96.5 398.5t269.5 299t380 113.5zM864 1290q-116 0 -218 -68t-169.5 -177t-106 -243.5t-38.5 -269.5q0 -141 38 -249.5t121.5 -175
t204.5 -66.5q99 0 186.5 46t150 122.5t108 174.5t68 203.5t22.5 207.5q0 106 -20.5 193t-63 156t-114.5 107.5t-169 38.5zM1120 1640l51 -32q-60 -164 -165 -164q-15 0 -33.5 5t-30.5 9.5t-38.5 16t-37.5 16.5q-56 27 -84 27q-48 0 -96 -91l-51 35q35 89 78 126.5t86 37.5
q42 0 123 -37q6 -2 20 -8.5t19.5 -8.5l16.5 -6t17.5 -5.5t14.5 -3t16 -1.5q26 0 46.5 19.5t47.5 64.5z" />
    <glyph glyph-name="Odieresis" unicode="&#xd6;" horiz-adv-x="1449" 
d="M881 1362q243 0 393.5 -164.5t150.5 -423.5q0 -161 -56 -308.5t-153 -257t-237 -174.5t-299 -65q-242 0 -393.5 161.5t-151.5 420.5q0 213 96.5 398.5t269.5 299t380 113.5zM864 1290q-116 0 -218 -68t-169.5 -177t-106 -243.5t-38.5 -269.5q0 -141 38 -249.5t121.5 -175
t204.5 -66.5q99 0 186.5 46t150 122.5t108 174.5t68 203.5t22.5 207.5q0 106 -20.5 193t-63 156t-114.5 107.5t-169 38.5zM715 1636q38 0 59 -25.5t21 -62.5q0 -45 -30 -78.5t-73 -33.5q-34 0 -57 24t-23 60q0 43 28.5 79.5t74.5 36.5zM1096 1636q38 0 59 -25.5t21 -62.5
q0 -45 -30 -78.5t-73 -33.5q-34 0 -57 24t-23 60q0 43 28 79.5t75 36.5z" />
    <glyph glyph-name="multiply" unicode="&#xd7;" horiz-adv-x="1220" 
d="M1098 96l-76 -76l-399 408l-400 -408l-71 76l395 410l-395 403l71 78l400 -405l399 409l76 -76l-400 -409z" />
    <glyph glyph-name="Oslash" unicode="&#xd8;" horiz-adv-x="1449" 
d="M1290 1419l58 -43l-105 -145q87 -77 134.5 -195t47.5 -260q0 -164 -57 -312.5t-155.5 -257.5t-239.5 -173t-301 -64q-166 0 -291 84l-105 -141l-53 49l99 135q-88 78 -137.5 195.5t-49.5 257.5q0 159 57.5 308t156 260t238.5 178t296 67q174 0 301 -88zM408 213l708 967
q-76 110 -248 110q-96 0 -183 -44t-151 -119t-111 -171.5t-71 -203.5t-24 -213q0 -208 80 -326zM1157 1116l-704 -966q90 -109 241 -109q123 0 227.5 69.5t171 179.5t103.5 241t37 260q0 203 -76 325z" />
    <glyph glyph-name="Ugrave" unicode="&#xd9;" horiz-adv-x="1447" 
d="M1583 1329l-12 -53q-97 -6 -130.5 -29t-49.5 -84q-37 -133 -82 -368l-31 -158q-38 -184 -93 -314t-151 -219q-144 -135 -348 -135q-196 0 -315 111q-156 146 -92 495l98 519q6 33 9.5 53t4 40t-1.5 30t-10.5 21t-18 15.5t-30 9.5t-40 7.5t-54.5 5.5l12 53h508l-13 -53
q-45 -5 -67 -7.5t-46 -11.5t-33 -18t-21 -31.5t-17 -46.5t-14 -69l-94 -500q-24 -141 -15 -238.5t52.5 -159t104.5 -89t140 -27.5q183 0 293.5 138.5t169.5 436.5l29 142q48 251 55 368q3 62 -32.5 83.5t-147.5 29.5l12 53h471zM1071 1452l-27 -51l-387 129l-4 14
q6 25 36.5 67.5t49.5 49.5q258 -162 332 -209z" />
    <glyph glyph-name="Uacute" unicode="&#xda;" horiz-adv-x="1447" 
d="M1583 1329l-12 -53q-97 -6 -130.5 -29t-49.5 -84q-37 -133 -82 -368l-31 -158q-38 -184 -93 -314t-151 -219q-144 -135 -348 -135q-196 0 -315 111q-156 146 -92 495l98 519q6 33 9.5 53t4 40t-1.5 30t-10.5 21t-18 15.5t-30 9.5t-40 7.5t-54.5 5.5l12 53h508l-13 -53
q-45 -5 -67 -7.5t-46 -11.5t-33 -18t-21 -31.5t-17 -46.5t-14 -69l-94 -500q-24 -141 -15 -238.5t52.5 -159t104.5 -89t140 -27.5q183 0 293.5 138.5t169.5 436.5l29 142q48 251 55 368q3 62 -32.5 83.5t-147.5 29.5l12 53h471zM1225 1546l-6 -16l-383 -129l-27 49
q62 39 175 111t155 98q19 -4 49 -46t37 -67z" />
    <glyph glyph-name="Ucircumflex" unicode="&#xdb;" horiz-adv-x="1447" 
d="M1583 1329l-12 -53q-97 -6 -130.5 -29t-49.5 -84q-37 -133 -82 -368l-31 -158q-38 -184 -93 -314t-151 -219q-144 -135 -348 -135q-196 0 -315 111q-156 146 -92 495l98 519q6 33 9.5 53t4 40t-1.5 30t-10.5 21t-18 15.5t-30 9.5t-40 7.5t-54.5 5.5l12 53h508l-13 -53
q-45 -5 -67 -7.5t-46 -11.5t-33 -18t-21 -31.5t-17 -46.5t-14 -69l-94 -500q-24 -141 -15 -238.5t52.5 -159t104.5 -89t140 -27.5q183 0 293.5 138.5t169.5 436.5l29 142q48 251 55 368q3 62 -32.5 83.5t-147.5 29.5l12 53h471zM1206 1452l-37 -45q-93 39 -219 119
q-163 -87 -258 -119l-26 45q152 95 278 213h51q89 -106 211 -213z" />
    <glyph glyph-name="Udieresis" unicode="&#xdc;" horiz-adv-x="1447" 
d="M1583 1329l-12 -53q-97 -6 -130.5 -29t-49.5 -84q-37 -133 -82 -368l-31 -158q-38 -184 -93 -314t-151 -219q-144 -135 -348 -135q-196 0 -315 111q-156 146 -92 495l98 519q6 33 9.5 53t4 40t-1.5 30t-10.5 21t-18 15.5t-30 9.5t-40 7.5t-54.5 5.5l12 53h508l-13 -53
q-45 -5 -67 -7.5t-46 -11.5t-33 -18t-21 -31.5t-17 -46.5t-14 -69l-94 -500q-24 -141 -15 -238.5t52.5 -159t104.5 -89t140 -27.5q183 0 293.5 138.5t169.5 436.5l29 142q48 251 55 368q3 62 -32.5 83.5t-147.5 29.5l12 53h471zM758 1616q38 0 59 -24.5t21 -61.5
q0 -46 -29.5 -79.5t-73.5 -33.5q-34 0 -57 24t-23 60q0 43 28 79t75 36zM1139 1616q38 0 59 -24.5t21 -61.5q0 -46 -29.5 -79.5t-73.5 -33.5q-34 0 -57 24t-23 60q0 43 28 79t75 36z" />
    <glyph glyph-name="Yacute" unicode="&#xdd;" horiz-adv-x="1251" 
d="M1405 1329l-14 -53q-70 -7 -105 -19.5t-66.5 -40.5t-86.5 -96q-123 -156 -336 -461q-38 -50 -49 -116l-58 -289q-10 -48 -14 -74.5t0.5 -50.5t12.5 -34t33 -19.5t51.5 -12.5t78.5 -8l-12 -55h-547l14 55q47 3 71.5 6t49.5 12t36 19.5t23 35t18.5 51t16.5 75.5l56 276
q10 56 -11 121q-178 468 -182 479q-35 91 -63 112.5t-125 33.5l12 53h475l-14 -53l-72 -10q-52 -7 -62 -24.5t7 -61.5q79 -234 186 -494q235 323 330 481q31 54 21 72.5t-68 26.5l-64 8l15 55h442zM1100 1546l-4 -16l-383 -129l-27 49q197 125 330 209q19 -4 49 -46t35 -67z
" />
    <glyph glyph-name="Thorn" unicode="&#xde;" horiz-adv-x="1107" 
d="M549 0h-526l12 53q46 5 68 7.5t46 11t33 17t20 30t16 43.5t13 65l168 867q8 44 11.5 66t1.5 45t-9 31.5t-27 18t-44 13.5t-68 8l12 53h486l-12 -53q-35 -4 -52 -5.5t-39 -8.5t-30 -10.5t-21.5 -20.5t-17 -28t-12.5 -43.5t-13.5 -56.5t-13.5 -77h145q191 0 296.5 -80
t105.5 -237q0 -77 -27.5 -143t-74.5 -112.5t-109.5 -79.5t-132.5 -48.5t-144 -16.5q-42 0 -73 10l-117 31l-25 -123q-7 -40 -10 -63t1.5 -43.5t13 -30t33 -18t51.5 -12t77 -7.5zM520 885l-86 -467q80 -29 160 -29q52 0 103.5 16t102 51t82 102t31.5 157q0 53 -14 96
t-45 77.5t-85.5 54t-129.5 20.5q-47 0 -86 -13q-22 -8 -33 -65z" />
    <glyph glyph-name="germandbls" unicode="&#xdf;" horiz-adv-x="1048" 
d="M168 887h119q32 154 85.5 258.5t149.5 187.5q65 55 145 90t156 35q117 0 184.5 -69t67.5 -179q0 -69 -31 -125q-113 -80 -178 -163t-65 -152q0 -65 67 -172q51 -79 74 -137.5t23 -118.5q0 -92 -64 -179t-157.5 -137.5t-182.5 -50.5q-62 0 -118 36.5t-56 80.5
q0 18 13 38.5t34 33.5q24 16 45 -2q90 -86 176 -86q76 0 122 52t46 122q0 91 -65 199q-40 63 -56.5 90.5t-34.5 74t-18 82.5q0 56 38 119.5t90 117t138 128.5q19 52 19 106q0 96 -47.5 153.5t-128.5 57.5q-39 0 -73 -14t-60.5 -35t-50.5 -58t-40.5 -70t-32.5 -85.5
t-26 -89.5t-21 -96t-16 -91.5t-14 -88.5l-6 -39q-10 -58 -32 -199t-40 -242q-47 -262 -110.5 -417.5t-145.5 -243.5q-63 -68 -126.5 -101.5t-102.5 -33.5q-43 0 -81 24.5t-38 57.5q0 20 15.5 45.5t39.5 44.5q24 16 43 2q52 -45 115 -45q52 0 84 43q70 83 135 514
q47 297 98 643h-155l-8 26z" />
    <glyph glyph-name="agrave" unicode="&#xe0;" horiz-adv-x="1003" 
d="M928 238l24 -50q-77 -95 -166 -154t-133 -59q-22 0 -33.5 13.5t-15.5 54t12 113.5l41 194h-4q-111 -157 -264 -282q-115 -93 -190 -93q-46 0 -82.5 59.5t-36.5 172.5q0 156 67 309t179 246q81 68 184.5 113t196.5 45q46 0 127 -15q58 -12 77 -12l7 -8q-71 -273 -142 -666
q-17 -88 4 -88q13 0 59.5 32.5t88.5 74.5zM305 106q38 0 117 71t154 166t110 165q22 79 68 295q-58 28 -138 28q-89 0 -145 -43q-100 -74 -160.5 -230.5t-60.5 -315.5q0 -66 16 -101t39 -35zM743 1024l-59 -18q-115 220 -182 335l6 19q17 6 72 16.5t77 7.5q9 -44 23.5 -106
t34 -139.5t28.5 -114.5z" />
    <glyph glyph-name="aacute" unicode="&#xe1;" horiz-adv-x="1003" 
d="M928 238l24 -50q-77 -95 -166 -154t-133 -59q-22 0 -33.5 13.5t-15.5 54t12 113.5l41 194h-4q-111 -157 -264 -282q-115 -93 -190 -93q-46 0 -82.5 59.5t-36.5 172.5q0 156 67 309t179 246q81 68 184.5 113t196.5 45q46 0 127 -15q58 -12 77 -12l7 -8q-71 -273 -142 -666
q-17 -88 4 -88q13 0 59.5 32.5t88.5 74.5zM305 106q38 0 117 71t154 166t110 165q22 79 68 295q-58 28 -138 28q-89 0 -145 -43q-100 -74 -160.5 -230.5t-60.5 -315.5q0 -66 16 -101t39 -35zM924 1354l-318 -348l-47 32q47 74 109.5 179.5t79.5 138.5q20 7 84.5 15.5
t85.5 4.5z" />
    <glyph glyph-name="acircumflex" unicode="&#xe2;" horiz-adv-x="1003" 
d="M928 238l24 -50q-77 -95 -166 -154t-133 -59q-22 0 -33.5 13.5t-15.5 54t12 113.5l41 194h-4q-111 -157 -264 -282q-115 -93 -190 -93q-46 0 -82.5 59.5t-36.5 172.5q0 156 67 309t179 246q81 68 184.5 113t196.5 45q46 0 127 -15q58 -12 77 -12l7 -8q-71 -273 -142 -666
q-17 -88 4 -88q13 0 59.5 32.5t88.5 74.5zM305 106q38 0 117 71t154 166t110 165q22 79 68 295q-58 28 -138 28q-89 0 -145 -43q-100 -74 -160.5 -230.5t-60.5 -315.5q0 -66 16 -101t39 -35zM860 1036l-47 -35q-55 61 -145 197q-123 -123 -224 -197l-38 35q177 204 266 334
h45q48 -152 143 -334z" />
    <glyph glyph-name="atilde" unicode="&#xe3;" horiz-adv-x="1003" 
d="M928 238l24 -50q-77 -95 -166 -154t-133 -59q-22 0 -33.5 13.5t-15.5 54t12 113.5l41 194h-4q-111 -157 -264 -282q-115 -93 -190 -93q-46 0 -82.5 59.5t-36.5 172.5q0 156 67 309t179 246q81 68 184.5 113t196.5 45q46 0 127 -15q58 -12 77 -12l7 -8q-71 -273 -142 -666
q-17 -88 4 -88q13 0 59.5 32.5t88.5 74.5zM305 106q38 0 117 71t154 166t110 165q22 79 68 295q-58 28 -138 28q-89 0 -145 -43q-100 -74 -160.5 -230.5t-60.5 -315.5q0 -66 16 -101t39 -35zM877 1270l49 -25q-70 -174 -166 -174q-11 0 -23 2t-20 4t-23 8.5t-21 9
t-25.5 11.5t-24.5 12q-55 25 -86 25q-48 0 -99 -88l-45 30q34 88 78 129t86 41q40 0 119 -36q79 -33 106 -33q44 0 95 84z" />
    <glyph glyph-name="adieresis" unicode="&#xe4;" horiz-adv-x="1003" 
d="M928 238l24 -50q-77 -95 -166 -154t-133 -59q-22 0 -33.5 13.5t-15.5 54t12 113.5l41 194h-4q-111 -157 -264 -282q-115 -93 -190 -93q-46 0 -82.5 59.5t-36.5 172.5q0 156 67 309t179 246q81 68 184.5 113t196.5 45q46 0 127 -15q58 -12 77 -12l7 -8q-71 -273 -142 -666
q-17 -88 4 -88q13 0 59.5 32.5t88.5 74.5zM305 106q38 0 117 71t154 166t110 165q22 79 68 295q-58 28 -138 28q-89 0 -145 -43q-100 -74 -160.5 -230.5t-60.5 -315.5q0 -66 16 -101t39 -35zM502 1292q37 0 57.5 -25t20.5 -61q0 -48 -29 -80t-74 -32q-34 0 -57 23t-23 61
q0 41 29 77.5t76 36.5zM862 1292q37 0 57.5 -25t20.5 -61q0 -48 -28.5 -80t-73.5 -32q-34 0 -57 23t-23 61q0 41 28.5 77.5t75.5 36.5z" />
    <glyph glyph-name="aring" unicode="&#xe5;" horiz-adv-x="1003" 
d="M928 238l24 -50q-77 -95 -166 -154t-133 -59q-22 0 -33.5 13.5t-15.5 54t12 113.5l41 194h-4q-111 -157 -264 -282q-115 -93 -190 -93q-46 0 -82.5 59.5t-36.5 172.5q0 156 67 309t179 246q81 68 184.5 113t196.5 45q46 0 127 -15q58 -12 77 -12l7 -8q-71 -273 -142 -666
q-17 -88 4 -88q13 0 59.5 32.5t88.5 74.5zM305 106q38 0 117 71t154 166t110 165q22 79 68 295q-58 28 -138 28q-89 0 -145 -43q-100 -74 -160.5 -230.5t-60.5 -315.5q0 -66 16 -101t39 -35zM678 1362q72 0 121.5 -48t46.5 -128q-3 -78 -62.5 -127t-136.5 -49
q-76 0 -122.5 46.5t-43.5 117.5q1 84 61 136t136 52zM670 1292q-39 0 -66.5 -31.5t-28.5 -80.5q-2 -45 19.5 -74t58.5 -29q40 0 69 32t30 81q2 45 -20 73.5t-62 28.5z" />
    <glyph glyph-name="ae" unicode="&#xe6;" horiz-adv-x="1359" 
d="M1255 260l33 -45q-227 -238 -444 -238q-37 0 -70.5 12.5t-67 42.5t-53.5 90t-20 144q0 29 4 47l-4 2q-48 -64 -115 -131t-129 -114q-46 -39 -103 -66t-93 -27q-43 0 -79 54.5t-36 171.5q0 157 63 311t168 244q78 70 188 116t201 46q41 0 88 -13q31 -4 80 -4l8 -8
l-28 -119l4 -2q65 65 155 105.5t158 40.5q81 0 128.5 -46.5t47.5 -115.5t-50.5 -131t-135.5 -108t-175.5 -79t-189.5 -55q-2 -23 -2 -72q0 -56 13 -102t48.5 -79.5t88.5 -33.5q151 0 319 162zM610 829q-89 0 -137 -30q-87 -57 -147 -197q-78 -172 -78 -356q0 -61 14 -96
t39 -35q32 0 84.5 35t103.5 92q122 133 168 231q21 57 47 166.5t33 161.5q-47 28 -127 28zM1085 831q-59 0 -104 -30q-23 -15 -47 -40.5t-51 -66t-49.5 -103.5t-34.5 -138q142 38 229.5 82.5t122 89.5t35.5 100q0 53 -28 79.5t-73 26.5z" />
    <glyph glyph-name="ccedilla" unicode="&#xe7;" horiz-adv-x="780" 
d="M688 248l29 -47q-67 -75 -145 -127.5t-146 -75.5l-41 -51q-22 -30 -21 -44.5t25 -43.5q69 -80 66 -140q-4 -62 -75.5 -118.5t-180.5 -89.5l-23 53q144 61 150 127q0 6 -0.5 12.5t-2 11.5t-4.5 11t-5 9.5t-7 9.5t-7 8.5t-8 9t-7 8.5q-33 38 -36 60.5t25 62.5l66 83v3
q-116 -15 -184 63t-68 223q0 137 57.5 277t157.5 227q70 62 165.5 106t174.5 44q62 0 107 -31.5t45 -69.5q0 -47 -58 -86q-38 -28 -61 8q-57 80 -148 80q-106 0 -176 -129q-39 -71 -66.5 -173t-27.5 -204t37.5 -159.5t107.5 -57.5q118 0 285 150z" />
    <glyph glyph-name="egrave" unicode="&#xe8;" 
d="M713 254l35 -47q-216 -232 -433 -232q-31 0 -60 7.5t-59.5 28t-53.5 52.5t-37.5 86.5t-14.5 124.5q0 151 64.5 296.5t181.5 234.5q67 52 143 83.5t139 31.5q80 0 130.5 -48t50.5 -116q0 -49 -25.5 -93.5t-71.5 -80t-99 -65t-118 -54t-117.5 -40.5t-109.5 -30
q-4 -25 -4 -65q0 -45 8 -83.5t25 -73.5t49.5 -55t77.5 -20q65 0 144 41.5t155 116.5zM543 836q-43 0 -84 -25q-24 -14 -49 -37.5t-54 -64t-53.5 -106t-36.5 -146.5q379 101 379 266q0 53 -28.5 83t-73.5 30zM647 1024l-59 -18q-146 271 -182 335l6 19q17 6 71.5 16.5
t77.5 7.5q9 -44 23.5 -106t34 -139.5t28.5 -114.5z" />
    <glyph glyph-name="eacute" unicode="&#xe9;" 
d="M713 254l35 -47q-216 -232 -433 -232q-31 0 -60 7.5t-59.5 28t-53.5 52.5t-37.5 86.5t-14.5 124.5q0 151 64.5 296.5t181.5 234.5q67 52 143 83.5t139 31.5q80 0 130.5 -48t50.5 -116q0 -49 -25.5 -93.5t-71.5 -80t-99 -65t-118 -54t-117.5 -40.5t-109.5 -30
q-4 -25 -4 -65q0 -45 8 -83.5t25 -73.5t49.5 -55t77.5 -20q65 0 144 41.5t155 116.5zM543 836q-43 0 -84 -25q-24 -14 -49 -37.5t-54 -64t-53.5 -106t-36.5 -146.5q379 101 379 266q0 53 -28.5 83t-73.5 30zM846 1354l-318 -348l-47 32q47 74 109.5 179.5t79.5 138.5
q20 7 84.5 15.5t85.5 4.5z" />
    <glyph glyph-name="ecircumflex" unicode="&#xea;" 
d="M713 254l35 -47q-216 -232 -433 -232q-31 0 -60 7.5t-59.5 28t-53.5 52.5t-37.5 86.5t-14.5 124.5q0 151 64.5 296.5t181.5 234.5q67 52 143 83.5t139 31.5q80 0 130.5 -48t50.5 -116q0 -49 -25.5 -93.5t-71.5 -80t-99 -65t-118 -54t-117.5 -40.5t-109.5 -30
q-4 -25 -4 -65q0 -45 8 -83.5t25 -73.5t49.5 -55t77.5 -20q65 0 144 41.5t155 116.5zM543 836q-43 0 -84 -25q-24 -14 -49 -37.5t-54 -64t-53.5 -106t-36.5 -146.5q379 101 379 266q0 53 -28.5 83t-73.5 30zM774 1036l-49 -35q-63 70 -143 197q-133 -129 -224 -197l-41 35
q169 191 267 334h45q50 -157 145 -334z" />
    <glyph glyph-name="edieresis" unicode="&#xeb;" 
d="M713 254l35 -47q-216 -232 -433 -232q-31 0 -60 7.5t-59.5 28t-53.5 52.5t-37.5 86.5t-14.5 124.5q0 151 64.5 296.5t181.5 234.5q67 52 143 83.5t139 31.5q80 0 130.5 -48t50.5 -116q0 -49 -25.5 -93.5t-71.5 -80t-99 -65t-118 -54t-117.5 -40.5t-109.5 -30
q-4 -25 -4 -65q0 -45 8 -83.5t25 -73.5t49.5 -55t77.5 -20q65 0 144 41.5t155 116.5zM543 836q-43 0 -84 -25q-24 -14 -49 -37.5t-54 -64t-53.5 -106t-36.5 -146.5q379 101 379 266q0 53 -28.5 83t-73.5 30zM410 1292q36 0 56.5 -25t20.5 -61q0 -48 -28.5 -80t-73.5 -32
q-34 0 -57 23t-23 61q0 41 29 77.5t76 36.5zM770 1292q37 0 57.5 -25t20.5 -61q0 -48 -29 -80t-74 -32q-34 0 -56.5 23t-22.5 61q0 41 28.5 77.5t75.5 36.5z" />
    <glyph glyph-name="igrave" unicode="&#xec;" horiz-adv-x="561" 
d="M459 223l26 -43q-57 -68 -152.5 -136.5t-146.5 -68.5q-23 0 -34.5 14t-11 60.5t19.5 126.5l127 524q18 66 -2 66q-13 0 -55 -25.5t-85 -62.5l-24 47q82 81 174 138t135 57q62 0 21 -162l-140 -565q-16 -66 4 -66q35 0 144 96zM467 1024l-57 -18q-125 232 -183 335l6 19
q17 6 72 16.5t78 7.5q11 -55 42.5 -184.5t41.5 -175.5z" />
    <glyph glyph-name="iacute" unicode="&#xed;" horiz-adv-x="561" 
d="M459 223l26 -43q-57 -68 -152.5 -136.5t-146.5 -68.5q-23 0 -34.5 14t-11 60.5t19.5 126.5l127 524q18 66 -2 66q-13 0 -55 -25.5t-85 -62.5l-24 47q82 81 174 138t135 57q62 0 21 -162l-140 -565q-16 -66 4 -66q35 0 144 96zM686 1354l-317 -348l-47 32
q47 73 108.5 178.5t79.5 139.5q20 7 84.5 15.5t85.5 4.5z" />
    <glyph glyph-name="icircumflex" unicode="&#xee;" horiz-adv-x="561" 
d="M459 223l26 -43q-57 -68 -152.5 -136.5t-146.5 -68.5q-23 0 -34.5 14t-11 60.5t19.5 126.5l127 524q18 66 -2 66q-13 0 -55 -25.5t-85 -62.5l-24 47q82 81 174 138t135 57q62 0 21 -162l-140 -565q-16 -66 4 -66q35 0 144 96zM614 1036l-47 -35q-55 61 -145 197
q-136 -132 -223 -197l-41 35q165 186 266 334h47q48 -152 143 -334z" />
    <glyph glyph-name="idieresis" unicode="&#xef;" horiz-adv-x="561" 
d="M459 223l26 -43q-57 -68 -152.5 -136.5t-146.5 -68.5q-23 0 -34.5 14t-11 60.5t19.5 126.5l127 524q18 66 -2 66q-13 0 -55 -25.5t-85 -62.5l-24 47q82 81 174 138t135 57q62 0 21 -162l-140 -565q-16 -66 4 -66q35 0 144 96zM262 1292q37 0 57.5 -25t20.5 -61
q0 -48 -28.5 -80t-73.5 -32q-34 0 -57 23t-23 61q0 41 28.5 77.5t75.5 36.5zM623 1292q36 0 56.5 -25t20.5 -61q0 -48 -28.5 -80t-73.5 -32q-34 0 -57 23t-23 61q0 41 29 77.5t76 36.5z" />
    <glyph glyph-name="eth" unicode="&#xf0;" horiz-adv-x="954" 
d="M973 1339l-240 -129q172 -226 172 -518q0 -173 -60.5 -331t-166.5 -252q-70 -61 -157.5 -97.5t-164.5 -36.5q-65 0 -116 27.5t-80.5 73t-44.5 100t-15 113.5q0 101 26 192.5t69.5 159.5t93.5 118.5t106 82.5q68 39 138 58.5t118 17.5q24 0 78 -15q-3 48 -35.5 125.5
t-64.5 124.5l-295 -158l-31 64l283 149q-33 46 -111 108.5t-153 86.5q-4 33 24 55q75 -14 171.5 -67.5t164.5 -126.5l256 137zM434 57q26 0 55 13q38 14 80 61t82 121.5t65.5 188t24.5 241.5q0 49 -7.5 74t-28.5 43q-50 39 -132 39q-48 0 -100 -25q-27 -14 -58 -48
t-65.5 -91.5t-57 -150.5t-22.5 -201q0 -114 41 -189.5t123 -75.5z" />
    <glyph glyph-name="ntilde" unicode="&#xf1;" horiz-adv-x="1089" 
d="M985 223l29 -49q-86 -93 -166 -146t-123 -53q-83 0 -33 213q6 25 111 455q14 57 15.5 90.5t-6.5 45.5t-26 12q-65 0 -207 -145.5t-223 -283.5q-52 -207 -80 -346q-69 -13 -147 -41l-12 17q122 491 166 694q20 82 -2 82q-14 0 -55.5 -28t-78.5 -64l-26 49q80 87 162 141
t127 54q72 0 16 -228l-43 -178h4q94 129 196 221t181 139q79 46 137 46q17 0 29.5 -5t24.5 -23t16 -48.5t-1.5 -86t-23.5 -130.5q-11 -46 -45.5 -195t-54.5 -231q-16 -74 4 -74q14 0 52.5 27t82.5 69zM899 1270l49 -25q-70 -174 -166 -174q-11 0 -23 2t-20 4t-23 8.5t-21 9
t-25.5 11.5t-24.5 12q-55 25 -86 25q-47 0 -98 -88l-45 30q34 88 78 129t86 41q39 0 118 -36q79 -33 109 -33q41 0 92 84z" />
    <glyph glyph-name="ograve" unicode="&#xf2;" horiz-adv-x="962" 
d="M365 -25q-71 0 -124.5 26.5t-84.5 72t-46.5 101t-15.5 120.5q0 191 88.5 339t223.5 220q125 66 221 66q128 0 200 -84t72 -236q0 -137 -57.5 -273.5t-161.5 -222.5q-153 -129 -315 -129zM438 57q34 0 66 13q88 37 155.5 187t67.5 339q0 120 -46 183t-120 63
q-34 0 -78 -19q-33 -14 -68 -52.5t-70 -100t-57 -158t-22 -207.5q0 -115 45.5 -181.5t126.5 -66.5zM688 1024l-57 -18q-127 236 -185 335l9 19q17 6 71.5 16.5t77.5 7.5q11 -55 42.5 -184.5t41.5 -175.5z" />
    <glyph glyph-name="oacute" unicode="&#xf3;" horiz-adv-x="962" 
d="M365 -25q-71 0 -124.5 26.5t-84.5 72t-46.5 101t-15.5 120.5q0 191 88.5 339t223.5 220q125 66 221 66q128 0 200 -84t72 -236q0 -137 -57.5 -273.5t-161.5 -222.5q-153 -129 -315 -129zM438 57q34 0 66 13q88 37 155.5 187t67.5 339q0 120 -46 183t-120 63
q-34 0 -78 -19q-33 -14 -68 -52.5t-70 -100t-57 -158t-22 -207.5q0 -115 45.5 -181.5t126.5 -66.5zM866 1354l-317 -348l-47 32q47 73 108.5 178.5t79.5 139.5q20 7 84.5 15.5t85.5 4.5z" />
    <glyph glyph-name="ocircumflex" unicode="&#xf4;" horiz-adv-x="962" 
d="M365 -25q-71 0 -124.5 26.5t-84.5 72t-46.5 101t-15.5 120.5q0 191 88.5 339t223.5 220q125 66 221 66q128 0 200 -84t72 -236q0 -137 -57.5 -273.5t-161.5 -222.5q-153 -129 -315 -129zM438 57q34 0 66 13q88 37 155.5 187t67.5 339q0 120 -46 183t-120 63
q-34 0 -78 -19q-33 -14 -68 -52.5t-70 -100t-57 -158t-22 -207.5q0 -115 45.5 -181.5t126.5 -66.5zM831 1036l-47 -35q-55 61 -145 197q-136 -132 -223 -197l-41 35q165 186 266 334h47q48 -152 143 -334z" />
    <glyph glyph-name="otilde" unicode="&#xf5;" horiz-adv-x="962" 
d="M365 -25q-71 0 -124.5 26.5t-84.5 72t-46.5 101t-15.5 120.5q0 191 88.5 339t223.5 220q125 66 221 66q128 0 200 -84t72 -236q0 -137 -57.5 -273.5t-161.5 -222.5q-153 -129 -315 -129zM438 57q34 0 66 13q88 37 155.5 187t67.5 339q0 120 -46 183t-120 63
q-34 0 -78 -19q-33 -14 -68 -52.5t-70 -100t-57 -158t-22 -207.5q0 -115 45.5 -181.5t126.5 -66.5zM844 1270l49 -25q-70 -174 -166 -174q-11 0 -23 2t-20 4t-23 8.5t-21 9t-25.5 11.5t-24.5 12q-55 25 -86 25q-47 0 -98 -88l-46 30q34 88 78 129t86 41q40 0 119 -36
q79 -33 109 -33q41 0 92 84z" />
    <glyph glyph-name="odieresis" unicode="&#xf6;" horiz-adv-x="962" 
d="M365 -25q-71 0 -124.5 26.5t-84.5 72t-46.5 101t-15.5 120.5q0 191 88.5 339t223.5 220q125 66 221 66q128 0 200 -84t72 -236q0 -137 -57.5 -273.5t-161.5 -222.5q-153 -129 -315 -129zM438 57q34 0 66 13q88 37 155.5 187t67.5 339q0 120 -46 183t-120 63
q-34 0 -78 -19q-33 -14 -68 -52.5t-70 -100t-57 -158t-22 -207.5q0 -115 45.5 -181.5t126.5 -66.5zM467 1292q37 0 57.5 -25t20.5 -61q0 -48 -29 -80t-74 -32q-34 0 -57 23t-23 61q0 41 29 77.5t76 36.5zM827 1292q37 0 57.5 -25t20.5 -61q0 -48 -28.5 -80t-73.5 -32
q-34 0 -57 23t-23 61q0 41 28.5 77.5t75.5 36.5z" />
    <glyph glyph-name="divide" unicode="&#xf7;" horiz-adv-x="1220" 
d="M635 725q-39 0 -69.5 29.5t-30.5 70.5q0 39 30.5 69t69.5 30q42 0 72 -29.5t30 -69.5q0 -41 -29.5 -70.5t-72.5 -29.5zM1128 471h-993v100h993v-100zM633 315q38 0 69 -29t31 -69q0 -39 -31 -68.5t-69 -29.5q-43 0 -73 29t-30 69q0 41 30 69.5t73 28.5z" />
    <glyph glyph-name="oslash" unicode="&#xf8;" horiz-adv-x="966" 
d="M854 989l51 -39l-80 -106q78 -84 78 -246q0 -130 -59 -267t-160 -225q-64 -56 -153.5 -93.5t-172.5 -37.5q-85 0 -137 37l-80 -108l-47 45l76 104q-74 82 -74 238q0 194 84.5 339t212.5 216q130 74 240 74q87 0 143 -37zM274 190l422 578q-38 72 -131 72q-44 0 -78 -15
q-32 -13 -69 -50t-75 -98t-63 -157t-26 -207q0 -41 20 -123zM729 702l-426 -575q44 -72 123 -72q37 0 76 17q90 34 166 184t75 340q0 62 -14 106z" />
    <glyph glyph-name="ugrave" unicode="&#xf9;" horiz-adv-x="1091" 
d="M1008 233l26 -49q-72 -87 -160 -148t-137 -61q-80 0 -30 218q13 58 38 180h-4q-165 -220 -329 -334q-89 -64 -166 -64q-24 0 -42 10.5t-32.5 36.5t-13.5 81t20 133q56 237 111 471q16 69 -6 69q-20 0 -144 -98l-22 49q86 86 172 139.5t129 53.5q36 0 41 -38t-19 -141
q-13 -55 -35 -154t-41 -181.5t-36 -155.5q-31 -135 24 -135q79 0 217 147.5t207 276.5q29 117 74 327l141 54h23q-96 -377 -160 -713q-15 -80 6 -80q15 0 62 33t86 73zM741 1024l-59 -18q-115 220 -182 335l6 19q17 6 72 16.5t77 7.5q9 -44 23.5 -106t34 -139.5t28.5 -114.5
z" />
    <glyph glyph-name="uacute" unicode="&#xfa;" horiz-adv-x="1091" 
d="M1008 233l26 -49q-72 -87 -160 -148t-137 -61q-80 0 -30 218q13 58 38 180h-4q-165 -220 -329 -334q-89 -64 -166 -64q-24 0 -42 10.5t-32.5 36.5t-13.5 81t20 133q56 237 111 471q16 69 -6 69q-20 0 -144 -98l-22 49q86 86 172 139.5t129 53.5q36 0 41 -38t-19 -141
q-13 -55 -35 -154t-41 -181.5t-36 -155.5q-31 -135 24 -135q79 0 217 147.5t207 276.5q29 117 74 327l141 54h23q-96 -377 -160 -713q-15 -80 6 -80q15 0 62 33t86 73zM954 1354l-317 -348l-47 32q47 73 108.5 178.5t79.5 139.5q20 7 84.5 15.5t85.5 4.5z" />
    <glyph glyph-name="ucircumflex" unicode="&#xfb;" horiz-adv-x="1091" 
d="M1008 233l26 -49q-72 -87 -160 -148t-137 -61q-80 0 -30 218q13 58 38 180h-4q-165 -220 -329 -334q-89 -64 -166 -64q-24 0 -42 10.5t-32.5 36.5t-13.5 81t20 133q56 237 111 471q16 69 -6 69q-20 0 -144 -98l-22 49q86 86 172 139.5t129 53.5q36 0 41 -38t-19 -141
q-13 -55 -35 -154t-41 -181.5t-36 -155.5q-31 -135 24 -135q79 0 217 147.5t207 276.5q29 117 74 327l141 54h23q-96 -377 -160 -713q-15 -80 6 -80q15 0 62 33t86 73zM893 1036l-47 -35q-59 65 -146 197q-126 -126 -223 -197l-39 35q182 210 267 334h45q48 -152 143 -334z
" />
    <glyph glyph-name="udieresis" unicode="&#xfc;" horiz-adv-x="1091" 
d="M1008 233l26 -49q-72 -87 -160 -148t-137 -61q-80 0 -30 218q13 58 38 180h-4q-165 -220 -329 -334q-89 -64 -166 -64q-24 0 -42 10.5t-32.5 36.5t-13.5 81t20 133q56 237 111 471q16 69 -6 69q-20 0 -144 -98l-22 49q86 86 172 139.5t129 53.5q36 0 41 -38t-19 -141
q-13 -55 -35 -154t-41 -181.5t-36 -155.5q-31 -135 24 -135q79 0 217 147.5t207 276.5q29 117 74 327l141 54h23q-96 -377 -160 -713q-15 -80 6 -80q15 0 62 33t86 73zM532 1292q37 0 57.5 -25t20.5 -61q0 -48 -28.5 -80t-73.5 -32q-34 0 -57 23t-23 61q0 41 28.5 77.5
t75.5 36.5zM893 1292q37 0 57.5 -25t20.5 -61q0 -48 -29 -80t-74 -32q-34 0 -57 23t-23 61q0 41 29 77.5t76 36.5z" />
    <glyph glyph-name="yacute" unicode="&#xfd;" horiz-adv-x="905" 
d="M489 154h5q140 215 193 318q82 159 81 245q0 43 -23 96q-9 22 5 51q11 23 35.5 39.5t50.5 16.5q34 0 56.5 -31.5t22.5 -81.5q3 -86 -71 -217q-64 -114 -175.5 -287.5t-195.5 -292.5q-220 -317 -369 -481l-213 -55l-16 45q275 179 481 458q-1 118 -20.5 320.5t-42.5 347.5
q-17 127 -43 127q-13 0 -48 -34t-71 -85l-35 47q57 89 124 154.5t118 65.5q42 0 67 -58t37 -182q26 -205 47 -526zM885 1354l-318 -348l-47 32q47 74 109.5 179.5t79.5 138.5q20 7 84.5 15.5t85.5 4.5z" />
    <glyph glyph-name="thorn" unicode="&#xfe;" horiz-adv-x="1011" 
d="M365 612h4q88 107 178 179.5t154.5 100.5t113.5 28q61 0 103.5 -61t42.5 -171q0 -177 -85 -342t-219 -260q-77 -54 -162.5 -82.5t-117.5 -28.5q-26 0 -65.5 9t-69.5 28q-9 -47 -28.5 -143t-29.5 -148q-17 -95 1.5 -122.5t103.5 -36.5l49 -4l-6 -52l-484 -24l7 53
q97 19 126 49t52 137q197 927 305 1475q10 51 11.5 76.5t-11 40t-32.5 17.5t-64 3h-49l6 53q69 8 141 25.5t118 31.5t56 15q14 2 18.5 -11t-0.5 -44zM721 801q-62 0 -170.5 -86.5t-204.5 -231.5q-61 -275 -76 -348q21 -25 66 -47t96 -22q82 0 137 40q74 49 148 208t74 337
q0 76 -19.5 113t-50.5 37z" />
    <glyph glyph-name="ydieresis" unicode="&#xff;" horiz-adv-x="905" 
d="M489 154h5q140 215 193 318q82 159 81 245q0 43 -23 96q-9 22 5 51q11 23 35.5 39.5t50.5 16.5q34 0 56.5 -31.5t22.5 -81.5q3 -86 -71 -217q-64 -114 -175.5 -287.5t-195.5 -292.5q-220 -317 -369 -481l-213 -55l-16 45q275 179 481 458q-1 118 -20.5 320.5t-42.5 347.5
q-17 127 -43 127q-13 0 -48 -34t-71 -85l-35 47q57 89 124 154.5t118 65.5q42 0 67 -58t37 -182q26 -205 47 -526zM444 1292q38 0 59 -25t21 -61q0 -48 -29 -80t-73 -32q-34 0 -57 23t-23 61q0 42 27.5 78t74.5 36zM805 1292q38 0 59 -25t21 -61q0 -47 -29.5 -79.5
t-73.5 -32.5q-34 0 -57 23t-23 61q0 42 28 78t75 36z" />
    <glyph glyph-name="Amacron" unicode="&#x100;" horiz-adv-x="1359" 
d="M1272 55l-15 -55h-483l14 55q71 7 101 19t38 37.5t-1 68.5q-7 46 -25 147t-27 156h-428q-102 -192 -143 -278q-16 -33 -23.5 -53t-8 -37.5t6 -26.5t26 -16t44.5 -10.5t68 -6.5l-13 -55h-440l14 55q53 7 78 13t53.5 28t50.5 55t60 101l617 1091l63 17l57 -363
q53 -340 131 -764q10 -60 18.5 -88t29.5 -49.5t50 -28t87 -12.5zM862 569l-82 531h-4q-228 -420 -284 -531h370zM1130 1561l-26 -107h-465l27 107h464z" />
    <glyph glyph-name="amacron" unicode="&#x101;" horiz-adv-x="1003" 
d="M928 238l24 -50q-77 -95 -166 -154t-133 -59q-22 0 -33.5 13.5t-15.5 54t12 113.5l41 194h-4q-111 -157 -264 -282q-115 -93 -190 -93q-46 0 -82.5 59.5t-36.5 172.5q0 156 67 309t179 246q81 68 184.5 113t196.5 45q46 0 127 -15q58 -12 77 -12l7 -8q-71 -273 -142 -666
q-17 -88 4 -88q13 0 59.5 32.5t88.5 74.5zM305 106q38 0 117 71t154 166t110 165q22 79 68 295q-58 28 -138 28q-89 0 -145 -43q-100 -74 -160.5 -230.5t-60.5 -315.5q0 -66 16 -101t39 -35zM905 1225l-24 -105h-459l27 105h456z" />
    <glyph glyph-name="Abreve" unicode="&#x102;" horiz-adv-x="1359" 
d="M1272 55l-15 -55h-483l14 55q71 7 101 19t38 37.5t-1 68.5q-7 46 -25 147t-27 156h-428q-102 -192 -143 -278q-16 -33 -23.5 -53t-8 -37.5t6 -26.5t26 -16t44.5 -10.5t68 -6.5l-13 -55h-440l14 55q53 7 78 13t53.5 28t50.5 55t60 101l617 1091l63 17l57 -363
q53 -340 131 -764q10 -60 18.5 -88t29.5 -49.5t50 -28t87 -12.5zM862 569l-82 531h-4q-228 -420 -284 -531h370zM1081 1653h62q-18 -114 -91 -175t-184 -61q-105 0 -160.5 61.5t-45.5 174.5h61q8 -52 48 -86.5t112 -34.5q138 0 198 121z" />
    <glyph glyph-name="abreve" unicode="&#x103;" horiz-adv-x="1003" 
d="M928 238l24 -50q-77 -95 -166 -154t-133 -59q-22 0 -33.5 13.5t-15.5 54t12 113.5l41 194h-4q-111 -157 -264 -282q-115 -93 -190 -93q-46 0 -82.5 59.5t-36.5 172.5q0 156 67 309t179 246q81 68 184.5 113t196.5 45q46 0 127 -15q58 -12 77 -12l7 -8q-71 -273 -142 -666
q-17 -88 4 -88q13 0 59.5 32.5t88.5 74.5zM305 106q38 0 117 71t154 166t110 165q22 79 68 295q-58 28 -138 28q-89 0 -145 -43q-100 -74 -160.5 -230.5t-60.5 -315.5q0 -66 16 -101t39 -35zM862 1315h53q-12 -74 -39 -128t-65 -83.5t-79 -43t-87 -13.5q-47 0 -84 13
t-66.5 44t-37 82.5t3.5 128.5h51q3 -73 42.5 -112.5t107.5 -39.5q67 0 120 39.5t80 112.5z" />
    <glyph glyph-name="Aogonek" unicode="&#x104;" horiz-adv-x="1359" 
d="M1272 55l-15 -55h-303q-89 -72 -138.5 -154.5t-49.5 -148.5q0 -34 20.5 -53t57.5 -19q46 0 108 27l15 -55l-117 -68q-38 -21 -88 -21q-60 0 -99.5 38t-39.5 102q0 54 24.5 109.5t72.5 111t87.5 93.5t101.5 91q28 28 23 66q-6 56 -58 364h-428q-81 -153 -141 -278
q-16 -33 -23.5 -53t-8 -37.5t6 -26.5t26 -16t44.5 -10.5t68 -6.5l-15 -55h-440l14 55q53 7 78 13t53.5 28t50.5 55t60 101l617 1091l63 17l57 -363q55 -354 131 -764q10 -60 18.5 -88t29.5 -49.5t50 -28t87 -12.5zM492 569h370l-82 529h-4q-243 -447 -284 -529z" />
    <glyph glyph-name="aogonek" unicode="&#x105;" horiz-adv-x="1003" 
d="M653 350h-4q-106 -153 -262 -284q-113 -91 -188 -91q-46 0 -82.5 59t-36.5 173q0 155 67.5 308.5t178.5 246.5q81 68 183.5 113t195.5 45q43 0 124 -15q58 -12 78 -12l6 -8q-68 -261 -141 -666q-15 -88 4 -88q14 0 60 32t90 75l24 -50q-77 -92 -151 -143.5t-123 -62.5
q-75 -58 -134 -145t-59 -144q0 -30 19.5 -49.5t52.5 -20.5q38 0 98 25l15 -54l-109 -61q-36 -20 -78 -20q-59 0 -99 34.5t-40 96.5q0 146 270 360q-20 40 2 152zM618 829q-95 0 -147 -43q-101 -74 -161 -227.5t-60 -312.5q0 -66 15 -99.5t38 -33.5q59 0 192 144t187 255
q33 106 68 289q-51 28 -132 28z" />
    <glyph glyph-name="Cacute" unicode="&#x106;" horiz-adv-x="1300" 
d="M1192 356l53 -28q-27 -66 -78 -165t-84 -145q-213 -49 -352 -49q-129 0 -237.5 39t-188.5 112t-125 185.5t-45 253.5q0 237 114 421.5t307 283t429 98.5q181 0 350 -68q-2 -34 -6.5 -145.5t-9.5 -167.5l-62 -6q-7 176 -83.5 245.5t-235.5 69.5q-131 0 -245.5 -60
t-192 -160t-122 -231.5t-44.5 -273.5q0 -149 47 -266.5t143.5 -188.5t229.5 -71q74 0 137.5 23t117 70t95 98.5t88.5 125.5zM1198 1577l-4 -16l-385 -129l-27 49q173 108 330 209q19 -4 50 -46t36 -67z" />
    <glyph glyph-name="cacute" unicode="&#x107;" horiz-adv-x="782" 
d="M688 248l31 -45q-93 -106 -205 -167t-205 -61q-101 0 -160 78t-59 223q0 130 57.5 266.5t153.5 225.5q68 60 162.5 106t165.5 46q64 0 108.5 -31.5t46.5 -71.5q0 -58 -67 -94q-24 -15 -45 12q-64 88 -154 88q-99 0 -170 -135q-40 -72 -65 -171t-25 -200q0 -107 39 -164
t106 -57q70 0 151.5 49t133.5 103zM850 1354l-318 -348l-47 32q47 74 109.5 179.5t79.5 138.5q20 7 84.5 15.5t85.5 4.5z" />
    <glyph glyph-name="Ccircumflex" unicode="&#x108;" horiz-adv-x="1300" 
d="M1192 356l53 -28q-27 -66 -78 -165t-84 -145q-213 -49 -352 -49q-129 0 -237.5 39t-188.5 112t-125 185.5t-45 253.5q0 237 114 421.5t307 283t429 98.5q181 0 350 -68q-2 -34 -6.5 -145.5t-9.5 -167.5l-62 -6q-7 176 -83.5 245.5t-235.5 69.5q-131 0 -245.5 -60
t-192 -160t-122 -231.5t-44.5 -273.5q0 -149 47 -266.5t143.5 -188.5t229.5 -71q74 0 137.5 23t117 70t95 98.5t88.5 125.5zM1198 1475l-37 -48q-106 47 -219 119q-144 -77 -258 -119l-27 48q156 98 279 213l51 -2q90 -108 211 -211z" />
    <glyph glyph-name="ccircumflex" unicode="&#x109;" horiz-adv-x="782" 
d="M688 248l31 -45q-93 -106 -205 -167t-205 -61q-101 0 -160 78t-59 223q0 130 57.5 266.5t153.5 225.5q68 60 162.5 106t165.5 46q64 0 108.5 -31.5t46.5 -71.5q0 -58 -67 -94q-24 -15 -45 12q-64 88 -154 88q-99 0 -170 -135q-40 -72 -65 -171t-25 -200q0 -107 39 -164
t106 -57q70 0 151.5 49t133.5 103zM801 1036l-47 -35q-59 65 -146 197q-126 -126 -223 -197l-39 35q177 204 266 334h45q46 -147 144 -334z" />
    <glyph glyph-name="Cdotaccent" unicode="&#x10a;" horiz-adv-x="1300" 
d="M1192 356l53 -28q-27 -66 -78 -165t-84 -145q-213 -49 -352 -49q-129 0 -237.5 39t-188.5 112t-125 185.5t-45 253.5q0 237 114 421.5t307 283t429 98.5q181 0 350 -68q-2 -34 -6.5 -145.5t-9.5 -167.5l-62 -6q-7 176 -83.5 245.5t-235.5 69.5q-131 0 -245.5 -60
t-192 -160t-122 -231.5t-44.5 -273.5q0 -149 47 -266.5t143.5 -188.5t229.5 -71q74 0 137.5 23t117 70t95 98.5t88.5 125.5zM946 1661q39 0 61.5 -26.5t22.5 -63.5q0 -48 -30.5 -83.5t-75.5 -35.5q-37 0 -61.5 25.5t-24.5 64.5q0 44 29.5 81.5t78.5 37.5z" />
    <glyph glyph-name="cdotaccent" unicode="&#x10b;" horiz-adv-x="782" 
d="M688 248l31 -45q-93 -106 -205 -167t-205 -61q-101 0 -160 78t-59 223q0 130 57.5 266.5t153.5 225.5q68 60 162.5 106t165.5 46q64 0 108.5 -31.5t46.5 -71.5q0 -58 -67 -94q-24 -15 -45 12q-64 88 -154 88q-99 0 -170 -135q-40 -72 -65 -171t-25 -200q0 -107 39 -164
t106 -57q70 0 151.5 49t133.5 103zM606 1300q39 0 61.5 -26.5t22.5 -63.5q0 -50 -31 -84t-77 -34q-36 0 -61 25.5t-25 64.5q0 43 30 80.5t80 37.5z" />
    <glyph glyph-name="Ccaron" unicode="&#x10c;" horiz-adv-x="1300" 
d="M1192 356l53 -28q-27 -66 -78 -165t-84 -145q-213 -49 -352 -49q-129 0 -237.5 39t-188.5 112t-125 185.5t-45 253.5q0 237 114 421.5t307 283t429 98.5q181 0 350 -68q-2 -34 -6.5 -145.5t-9.5 -167.5l-62 -6q-7 176 -83.5 245.5t-235.5 69.5q-131 0 -245.5 -60
t-192 -160t-122 -231.5t-44.5 -273.5q0 -149 47 -266.5t143.5 -188.5t229.5 -71q74 0 137.5 23t117 70t95 98.5t88.5 125.5zM1200 1696l29 -43q-176 -117 -279 -215h-51q-84 104 -211 215l39 43q87 -36 217 -119q162 87 256 119z" />
    <glyph glyph-name="ccaron" unicode="&#x10d;" horiz-adv-x="782" 
d="M688 248l31 -45q-93 -106 -205 -167t-205 -61q-101 0 -160 78t-59 223q0 130 57.5 266.5t153.5 225.5q68 60 162.5 106t165.5 46q64 0 108.5 -31.5t46.5 -71.5q0 -58 -67 -94q-24 -15 -45 12q-64 88 -154 88q-99 0 -170 -135q-40 -72 -65 -171t-25 -200q0 -107 39 -164
t106 -57q70 0 151.5 49t133.5 103zM805 1378l45 -37q-166 -188 -266 -331h-45q-55 163 -146 331l51 37q60 -72 142 -196q131 127 219 196z" />
    <glyph glyph-name="Dcaron" unicode="&#x10e;" horiz-adv-x="1449" 
d="M266 1329h510q151 0 269 -32t204.5 -98.5t132 -173.5t45.5 -251q0 -194 -88 -356.5t-249 -263.5q-127 -83 -278 -118.5t-349 -35.5h-445l15 55q43 4 68 8t48 13.5t33.5 19.5t22 33t17 48t14.5 69l159 835q9 45 12.5 69.5t0.5 47.5t-10 33t-28.5 20t-45.5 14.5t-70 10.5z
M573 1139l-165 -875q-14 -76 -9.5 -111.5t31.5 -50.5q49 -28 150 -28q152 0 277 57t206.5 154.5t125.5 226t44 272.5q0 232 -126.5 355t-352.5 123q-96 0 -136 -21q-30 -18 -45 -102zM1116 1667l29 -45q-176 -117 -279 -215h-51q-78 99 -211 215l39 45q89 -40 217 -121
q161 86 256 121z" />
    <glyph glyph-name="dcaron" unicode="&#x10f;" horiz-adv-x="1040" 
d="M963 229l28 -47q-77 -91 -165.5 -149t-135.5 -58q-23 0 -35 14.5t-16 57t14 119.5l37 174l-4 -2q-108 -144 -270 -268q-118 -95 -199 -95q-55 0 -94 64.5t-39 181.5q0 148 64 297t174 244q72 63 181 110.5t181 47.5q62 0 121 -23l67 338q14 69 2 84.5t-79 15.5h-66l6 51
q75 9 147 27t114 31.5t53 13.5q25 0 14 -57q-158 -675 -254 -1204q-14 -68 8 -68q19 0 62 29.5t84 70.5zM317 109q49 0 133 69t156.5 156t108.5 151l65 293q-23 22 -71.5 37.5t-94.5 15.5q-84 0 -143 -43q-65 -47 -116 -141.5t-76 -196t-25 -190.5q0 -75 17.5 -113t45.5 -38
zM1243 1452q42 0 71 -36t29 -95q0 -87 -59 -144.5t-145 -82.5l-23 51q56 28 85.5 56t29.5 65q0 27 -11.5 41.5t-37.5 27.5q-19 8 -19 41q0 30 24 53t56 23z" />
    <glyph glyph-name="Dcroat" unicode="&#x110;" horiz-adv-x="1472" 
d="M285 1329h508q148 0 265.5 -31.5t206 -96t136 -171.5t47.5 -250q0 -192 -90.5 -356.5t-251.5 -269.5q-131 -84 -281 -119t-350 -35h-438l14 55q45 5 67.5 8t46.5 11.5t34 18t22 32t18 47.5t15 70l80 415h-223l16 76h221l68 344q7 36 10.5 59t3 44.5t-1.5 33t-11.5 23
t-19 16t-31.5 10t-40.5 7.5t-55.5 6zM502 657l-72 -378q-16 -89 -11.5 -125t36.5 -54q48 -26 139 -26q135 1 247 43t186.5 112t126 163.5t74.5 194.5t23 208q0 98 -23.5 178.5t-75 147t-144.5 104t-220 37.5q-103 0 -145 -17q-19 -9 -28 -26t-17 -54l-82 -432h318l-17 -76
h-315z" />
    <glyph glyph-name="dcroat" unicode="&#x111;" horiz-adv-x="1042" 
d="M1167 1167l-18 -73h-152q-94 -409 -184 -899q-14 -68 8 -68q19 0 63 30.5t85 71.5l26 -45q-77 -92 -165 -150.5t-134 -58.5q-79 0 -43 179l39 188h-4q-105 -145 -266 -272q-126 -95 -207 -95q-56 0 -95.5 64.5t-39.5 181.5q0 149 64 298t175 243q72 63 183.5 110.5
t185.5 47.5q62 0 121 -23l43 197h-270l18 73h264l15 72q12 63 -2.5 80t-81.5 18h-60l4 49q75 9 147 27t113.5 31.5t51.5 13.5q28 0 14 -57q-9 -45 -27 -124.5t-24 -109.5h153zM621 831q-92 0 -152 -43q-99 -69 -158 -228.5t-59 -299.5q0 -75 17 -113t44 -38q41 0 102.5 42.5
t120.5 104t110 127t77 113.5l61 282q-24 22 -70.5 37.5t-92.5 15.5z" />
    <glyph glyph-name="Emacron" unicode="&#x112;" horiz-adv-x="1144" 
d="M262 1329h891q-10 -60 -39 -313l-59 -4q-3 132 -27 180q-13 26 -29 39.5t-56.5 22t-113.5 8.5h-159q-51 0 -64.5 -13t-25.5 -71l-84 -445h196q46 0 74 1.5t52.5 8.5t37 14.5t26.5 28t22 40t22 57.5h59l-78 -387h-57q1 26 1 39.5t-1 31.5t-2.5 26t-6.5 19.5t-10.5 15.5
t-16 10.5t-22 8t-30.5 3.5t-38.5 2.5t-47.5 0.5h-197l-67 -358q-17 -89 -15 -133.5t25 -63.5q22 -18 67 -23t140 -5q114 0 170.5 14.5t97.5 54.5q59 57 137 197l58 -21q-5 -12 -57.5 -145t-69.5 -170h-959l12 55q47 4 72 7t50 12t36 19t23 33t18.5 48.5t15.5 71.5l162 839
q9 46 13 70.5t1 48t-10.5 33t-29.5 19t-47 13t-72 7.5zM1022 1569l-27 -105h-465l29 105h463z" />
    <glyph glyph-name="emacron" unicode="&#x113;" 
d="M713 254l35 -47q-216 -232 -433 -232q-31 0 -60 7.5t-59.5 28t-53.5 52.5t-37.5 86.5t-14.5 124.5q0 151 64.5 296.5t181.5 234.5q67 52 143 83.5t139 31.5q80 0 130.5 -48t50.5 -116q0 -49 -25.5 -93.5t-71.5 -80t-99 -65t-118 -54t-117.5 -40.5t-109.5 -30
q-4 -25 -4 -65q0 -45 8 -83.5t25 -73.5t49.5 -55t77.5 -20q65 0 144 41.5t155 116.5zM543 836q-43 0 -84 -25q-24 -14 -49 -37.5t-54 -64t-53.5 -106t-36.5 -146.5q379 101 379 266q0 53 -28.5 83t-73.5 30zM813 1225l-27 -105h-456l24 105h459z" />
    <glyph glyph-name="Ebreve" unicode="&#x114;" horiz-adv-x="1144" 
d="M262 1329h891q-10 -60 -39 -313l-59 -4q-3 132 -27 180q-13 26 -29 39.5t-56.5 22t-113.5 8.5h-159q-51 0 -64.5 -13t-25.5 -71l-84 -445h196q46 0 74 1.5t52.5 8.5t37 14.5t26.5 28t22 40t22 57.5h59l-78 -387h-57q1 26 1 39.5t-1 31.5t-2.5 26t-6.5 19.5t-10.5 15.5
t-16 10.5t-22 8t-30.5 3.5t-38.5 2.5t-47.5 0.5h-197l-67 -358q-17 -89 -15 -133.5t25 -63.5q22 -18 67 -23t140 -5q114 0 170.5 14.5t97.5 54.5q59 57 137 197l58 -21q-5 -12 -57.5 -145t-69.5 -170h-959l12 55q47 4 72 7t50 12t36 19t23 33t18.5 48.5t15.5 71.5l162 839
q9 46 13 70.5t1 48t-10.5 33t-29.5 19t-47 13t-72 7.5zM989 1657h62q-18 -114 -91 -175t-184 -61q-105 0 -162 61.5t-47 174.5h64q8 -52 47.5 -86.5t112.5 -34.5q135 0 198 121z" />
    <glyph glyph-name="ebreve" unicode="&#x115;" 
d="M713 254l35 -47q-216 -232 -433 -232q-31 0 -60 7.5t-59.5 28t-53.5 52.5t-37.5 86.5t-14.5 124.5q0 151 64.5 296.5t181.5 234.5q67 52 143 83.5t139 31.5q80 0 130.5 -48t50.5 -116q0 -49 -25.5 -93.5t-71.5 -80t-99 -65t-118 -54t-117.5 -40.5t-109.5 -30
q-4 -25 -4 -65q0 -45 8 -83.5t25 -73.5t49.5 -55t77.5 -20q65 0 144 41.5t155 116.5zM543 836q-43 0 -84 -25q-24 -14 -49 -37.5t-54 -64t-53.5 -106t-36.5 -146.5q379 101 379 266q0 53 -28.5 83t-73.5 30zM776 1315h53q-12 -74 -39 -128t-65 -83.5t-79 -43t-87 -13.5
q-47 0 -84 13t-66.5 44t-37 82.5t3.5 128.5h51q3 -73 42 -112.5t107 -39.5q67 0 120.5 39.5t80.5 112.5z" />
    <glyph glyph-name="Edotaccent" unicode="&#x116;" horiz-adv-x="1144" 
d="M262 1329h891q-10 -60 -39 -313l-59 -4q-3 132 -27 180q-13 26 -29 39.5t-56.5 22t-113.5 8.5h-159q-51 0 -64.5 -13t-25.5 -71l-84 -445h196q46 0 74 1.5t52.5 8.5t37 14.5t26.5 28t22 40t22 57.5h59l-78 -387h-57q1 26 1 39.5t-1 31.5t-2.5 26t-6.5 19.5t-10.5 15.5
t-16 10.5t-22 8t-30.5 3.5t-38.5 2.5t-47.5 0.5h-197l-67 -358q-17 -89 -15 -133.5t25 -63.5q22 -18 67 -23t140 -5q114 0 170.5 14.5t97.5 54.5q59 57 137 197l58 -21q-5 -12 -57.5 -145t-69.5 -170h-959l12 55q47 4 72 7t50 12t36 19t23 33t18.5 48.5t15.5 71.5l162 839
q9 46 13 70.5t1 48t-10.5 33t-29.5 19t-47 13t-72 7.5zM797 1642q40 0 62 -26.5t22 -65.5q0 -48 -31.5 -83t-77.5 -35q-36 0 -60 25.5t-24 64.5q0 44 30 82t79 38z" />
    <glyph glyph-name="edotaccent" unicode="&#x117;" 
d="M713 254l35 -47q-216 -232 -433 -232q-31 0 -60 7.5t-59.5 28t-53.5 52.5t-37.5 86.5t-14.5 124.5q0 151 64.5 296.5t181.5 234.5q67 52 143 83.5t139 31.5q80 0 130.5 -48t50.5 -116q0 -49 -25.5 -93.5t-71.5 -80t-99 -65t-118 -54t-117.5 -40.5t-109.5 -30
q-4 -25 -4 -65q0 -45 8 -83.5t25 -73.5t49.5 -55t77.5 -20q65 0 144 41.5t155 116.5zM543 836q-43 0 -84 -25q-24 -14 -49 -37.5t-54 -64t-53.5 -106t-36.5 -146.5q379 101 379 266q0 53 -28.5 83t-73.5 30zM618 1300q39 0 61.5 -26.5t22.5 -63.5q0 -50 -30.5 -84t-77.5 -34
q-36 0 -60 25.5t-24 64.5q0 43 29.5 80.5t78.5 37.5z" />
    <glyph glyph-name="Eogonek" unicode="&#x118;" horiz-adv-x="1144" 
d="M262 1329h891q-10 -60 -39 -313l-59 -4q-4 137 -29 182q-16 38 -55 53t-146 15h-155q-52 0 -65 -13t-25 -73l-84 -443h196q46 0 74 1.5t52.5 8.5t37 14.5t26.5 28t22 40t22 57.5h59l-78 -387h-57q1 26 1 39.5t-1 31.5t-2.5 26t-6.5 19.5t-10.5 15.5t-16 10.5t-22 8
t-30.5 3.5t-38.5 2.5t-47.5 0.5h-197l-67 -358q-17 -89 -15 -133.5t25 -63.5q22 -18 67 -23t140 -5q114 0 169.5 15t98.5 56q62 59 137 195l58 -21q-5 -12 -57.5 -145t-69.5 -170h-97q-100 -71 -167.5 -158.5t-67.5 -148.5q0 -35 21.5 -53.5t58.5 -18.5q32 0 94 23l16 -54
l-110 -63q-40 -19 -80 -19q-62 0 -104 35t-42 99q0 85 83 181t204 177h-768l12 55q47 4 72 7t50 12t36 19t23 33t18.5 48.5t15.5 71.5l162 839q7 34 10.5 55t4 42t-1.5 31.5t-11 22t-19 16.5t-31 10.5t-42 8t-57 5.5z" />
    <glyph glyph-name="eogonek" unicode="&#x119;" 
d="M711 256l34 -47q-107 -117 -221 -174q-109 -89 -170 -171t-61 -167q0 -33 21.5 -51.5t54.5 -18.5q38 0 94 25l16 -55l-106 -60q-43 -24 -84 -24q-60 0 -99.5 33.5t-39.5 95.5q0 159 235 340l-2 2q-145 -23 -219 55.5t-74 234.5q0 148 65 295t181 236q67 52 144.5 83.5
t142.5 31.5q79 0 127.5 -48.5t48.5 -115.5q0 -49 -25.5 -94t-71.5 -81t-99 -66t-118 -54.5t-119 -41t-110 -30.5q-2 -25 -2 -63q0 -45 8 -83t25 -72t49.5 -53.5t77.5 -19.5q64 0 142 41.5t155 116.5zM549 834q-52 0 -90 -23q-25 -15 -49 -38.5t-54 -64t-54.5 -105.5
t-37.5 -146q381 101 381 266q0 53 -26 82t-70 29z" />
    <glyph glyph-name="Ecaron" unicode="&#x11a;" horiz-adv-x="1144" 
d="M262 1329h891q-10 -60 -39 -313l-59 -4q-3 132 -27 180q-13 26 -29 39.5t-56.5 22t-113.5 8.5h-159q-51 0 -64.5 -13t-25.5 -71l-84 -445h196q46 0 74 1.5t52.5 8.5t37 14.5t26.5 28t22 40t22 57.5h59l-78 -387h-57q1 26 1 39.5t-1 31.5t-2.5 26t-6.5 19.5t-10.5 15.5
t-16 10.5t-22 8t-30.5 3.5t-38.5 2.5t-47.5 0.5h-197l-67 -358q-17 -89 -15 -133.5t25 -63.5q22 -18 67 -23t140 -5q114 0 170.5 14.5t97.5 54.5q59 57 137 197l58 -21q-5 -12 -57.5 -145t-69.5 -170h-959l12 55q47 4 72 7t50 12t36 19t23 33t18.5 48.5t15.5 71.5l162 839
q9 46 13 70.5t1 48t-10.5 33t-29.5 19t-47 13t-72 7.5zM1047 1665l28 -45q-172 -114 -278 -213h-52q-81 100 -210 213l38 45q84 -37 218 -119q149 79 256 119z" />
    <glyph glyph-name="ecaron" unicode="&#x11b;" 
d="M713 254l35 -47q-216 -232 -433 -232q-31 0 -60 7.5t-59.5 28t-53.5 52.5t-37.5 86.5t-14.5 124.5q0 151 64.5 296.5t181.5 234.5q67 52 143 83.5t139 31.5q80 0 130.5 -48t50.5 -116q0 -49 -25.5 -93.5t-71.5 -80t-99 -65t-118 -54t-117.5 -40.5t-109.5 -30
q-4 -25 -4 -65q0 -45 8 -83.5t25 -73.5t49.5 -55t77.5 -20q65 0 144 41.5t155 116.5zM543 836q-43 0 -84 -25q-24 -14 -49 -37.5t-54 -64t-53.5 -106t-36.5 -146.5q379 101 379 266q0 53 -28.5 83t-73.5 30zM807 1378l47 -37q-166 -188 -266 -331h-45q-55 163 -146 331
l52 37q55 -66 141 -196q131 126 217 196z" />
    <glyph glyph-name="Gcircumflex" unicode="&#x11c;" horiz-adv-x="1394" 
d="M1339 977l-59 -4q0 169 -81.5 243t-246.5 74q-111 0 -209 -38t-171.5 -106t-127 -158.5t-81 -197.5t-27.5 -221q0 -236 116.5 -382t327.5 -146q100 0 158.5 33.5t75.5 109.5l39 193q9 42 12.5 64t-1 44t-13.5 30t-36 17t-56 12.5t-87 8.5l13 53h499l-12 -51
q-33 -5 -49.5 -8.5t-34 -12.5t-24.5 -17.5t-16 -30.5t-14 -44t-13 -65l-33 -170q-19 -99 -10 -162q-27 -6 -96.5 -23.5t-111 -26.5t-106 -17.5t-121.5 -8.5q-272 0 -439 155.5t-167 430.5q0 232 109.5 416t306.5 287.5t448 103.5q182 0 363 -66q-16 -166 -25 -319z
M1212 1470l-36 -47q-110 49 -220 119q-150 -80 -258 -119l-26 47q161 101 278 213l51 -2q90 -106 211 -211z" />
    <glyph glyph-name="gcircumflex" unicode="&#x11d;" horiz-adv-x="860" 
d="M961 911l14 -39q-74 -83 -146 -96q-24 -6 -53 -6q17 -49 17 -115q0 -100 -45.5 -181t-110.5 -132q-108 -88 -264 -119q-41 -33 -41 -65q0 -42 147 -119q147 -78 212 -142t65 -130q0 -61 -48 -117t-120.5 -93.5t-156.5 -60t-159 -22.5q-151 0 -260 67.5t-106 161.5
q1 64 86 135t258 160q-37 24 -57.5 51.5t-18.5 48.5q0 53 125 127q-178 41 -178 250q0 98 46.5 189t125.5 153q61 49 132.5 76t129.5 27q107 0 174 -58q160 3 232 49zM410 305q89 0 160 94.5t71 249.5q0 90 -35.5 144.5t-101.5 54.5q-88 0 -150 -92q-78 -111 -78 -267
q0 -87 38 -135.5t96 -48.5zM354 -440q112 0 182 44.5t70 106.5q0 75 -149 162q-114 69 -154 88q-106 -51 -166.5 -109t-60.5 -114q0 -76 83.5 -127t194.5 -51zM752 1036l-47 -35q-59 65 -146 197q-119 -119 -223 -197l-39 35q177 204 266 334h45q46 -147 144 -334z" />
    <glyph glyph-name="Gbreve" unicode="&#x11e;" horiz-adv-x="1394" 
d="M1339 977l-59 -4q0 169 -81.5 243t-246.5 74q-111 0 -209 -38t-171.5 -106t-127 -158.5t-81 -197.5t-27.5 -221q0 -236 116.5 -382t327.5 -146q100 0 158.5 33.5t75.5 109.5l39 193q9 42 12.5 64t-1 44t-13.5 30t-36 17t-56 12.5t-87 8.5l13 53h499l-12 -51
q-33 -5 -49.5 -8.5t-34 -12.5t-24.5 -17.5t-16 -30.5t-14 -44t-13 -65l-33 -170q-19 -99 -10 -162q-27 -6 -96.5 -23.5t-111 -26.5t-106 -17.5t-121.5 -8.5q-272 0 -439 155.5t-167 430.5q0 232 109.5 416t306.5 287.5t448 103.5q182 0 363 -66q-16 -166 -25 -319z
M1171 1679h64q-20 -114 -92.5 -174.5t-181.5 -60.5q-106 0 -162.5 61t-46.5 174h61q10 -53 49.5 -86.5t112.5 -33.5q137 0 196 120z" />
    <glyph glyph-name="gbreve" unicode="&#x11f;" horiz-adv-x="860" 
d="M961 911l14 -39q-74 -83 -146 -96q-24 -6 -53 -6q17 -49 17 -115q0 -100 -45.5 -181t-110.5 -132q-108 -88 -264 -119q-41 -33 -41 -65q0 -42 147 -119q147 -78 212 -142t65 -130q0 -61 -48 -117t-120.5 -93.5t-156.5 -60t-159 -22.5q-151 0 -260 67.5t-106 161.5
q1 64 86 135t258 160q-37 24 -57.5 51.5t-18.5 48.5q0 53 125 127q-178 41 -178 250q0 98 46.5 189t125.5 153q61 49 132.5 76t129.5 27q107 0 174 -58q160 3 232 49zM410 305q89 0 160 94.5t71 249.5q0 90 -35.5 144.5t-101.5 54.5q-88 0 -150 -92q-78 -111 -78 -267
q0 -87 38 -135.5t96 -48.5zM354 -440q112 0 182 44.5t70 106.5q0 75 -149 162q-114 69 -154 88q-106 -51 -166.5 -109t-60.5 -114q0 -76 83.5 -127t194.5 -51zM752 1315h53q-12 -74 -39 -128t-65 -83.5t-79 -43t-87 -13.5q-47 0 -84 13t-67 44t-37.5 82.5t3.5 128.5h51
q3 -73 42.5 -112.5t107.5 -39.5q67 0 120.5 39.5t80.5 112.5z" />
    <glyph glyph-name="Gdotaccent" unicode="&#x120;" horiz-adv-x="1394" 
d="M1339 977l-59 -4q0 169 -81.5 243t-246.5 74q-111 0 -209 -38t-171.5 -106t-127 -158.5t-81 -197.5t-27.5 -221q0 -236 116.5 -382t327.5 -146q100 0 158.5 33.5t75.5 109.5l39 193q9 42 12.5 64t-1 44t-13.5 30t-36 17t-56 12.5t-87 8.5l13 53h499l-12 -51
q-33 -5 -49.5 -8.5t-34 -12.5t-24.5 -17.5t-16 -30.5t-14 -44t-13 -65l-33 -170q-19 -99 -10 -162q-27 -6 -96.5 -23.5t-111 -26.5t-106 -17.5t-121.5 -8.5q-272 0 -439 155.5t-167 430.5q0 232 109.5 416t306.5 287.5t448 103.5q182 0 363 -66q-16 -166 -25 -319zM971 1657
q40 0 62 -26.5t22 -65.5q0 -47 -32 -82t-77 -35q-36 0 -61 24.5t-25 63.5q0 46 30 83.5t81 37.5z" />
    <glyph glyph-name="gdotaccent" unicode="&#x121;" horiz-adv-x="860" 
d="M961 911l14 -39q-74 -83 -146 -96q-24 -6 -53 -6q17 -49 17 -115q0 -100 -45.5 -181t-110.5 -132q-108 -88 -264 -119q-41 -33 -41 -65q0 -42 147 -119q147 -78 212 -142t65 -130q0 -61 -48 -117t-120.5 -93.5t-156.5 -60t-159 -22.5q-151 0 -260 67.5t-106 161.5
q1 64 86 135t258 160q-37 24 -57.5 51.5t-18.5 48.5q0 53 125 127q-178 41 -178 250q0 98 46.5 189t125.5 153q61 49 132.5 76t129.5 27q107 0 174 -58q160 3 232 49zM410 305q89 0 160 94.5t71 249.5q0 90 -35.5 144.5t-101.5 54.5q-88 0 -150 -92q-78 -111 -78 -267
q0 -87 38 -135.5t96 -48.5zM354 -440q112 0 182 44.5t70 106.5q0 75 -149 162q-114 69 -154 88q-106 -51 -166.5 -109t-60.5 -114q0 -76 83.5 -127t194.5 -51zM569 1300q40 0 63 -26.5t23 -63.5q0 -50 -31 -84t-77 -34q-37 0 -61.5 25.5t-24.5 64.5q0 43 29.5 80.5
t78.5 37.5z" />
    <glyph glyph-name="uni0122" unicode="&#x122;" horiz-adv-x="1394" 
d="M1339 977l-59 -4q0 169 -81.5 243t-246.5 74q-111 0 -209 -38t-171.5 -106t-127 -158.5t-81 -197.5t-27.5 -221q0 -236 116.5 -382t327.5 -146q100 0 158.5 33.5t75.5 109.5l39 193q9 42 12.5 64t-1 44t-13.5 30t-36 17t-56 12.5t-87 8.5l13 53h499l-12 -51
q-33 -5 -49.5 -8.5t-34 -12.5t-24.5 -17.5t-16 -30.5t-14 -44t-13 -65l-33 -170q-19 -99 -10 -162q-27 -6 -96.5 -23.5t-111 -26.5t-106 -17.5t-121.5 -8.5q-272 0 -439 155.5t-167 430.5q0 232 109.5 416t306.5 287.5t448 103.5q182 0 363 -66q-16 -166 -25 -319zM727 -88
q51 0 86 -36t35 -95q1 -52 -21.5 -94.5t-60.5 -69.5t-77 -43.5t-83 -26.5l-16 56q68 25 103.5 51.5t35.5 66.5q0 49 -74 72q-22 3 -22 39q0 35 27 57.5t67 22.5z" />
    <glyph glyph-name="uni0123" unicode="&#x123;" horiz-adv-x="860" 
d="M961 911l14 -39q-74 -83 -146 -96q-24 -6 -53 -6q17 -49 17 -115q0 -100 -45.5 -181t-110.5 -132q-108 -88 -264 -119q-41 -33 -41 -65q0 -42 147 -119q147 -78 212 -142t65 -130q0 -61 -48 -117t-120.5 -93.5t-156.5 -60t-159 -22.5q-151 0 -260 67.5t-106 161.5
q1 64 86 135t258 160q-37 24 -57.5 51.5t-18.5 48.5q0 53 125 127q-178 41 -178 250q0 98 46.5 189t125.5 153q61 49 132.5 76t129.5 27q107 0 174 -58q160 3 232 49zM410 305q89 0 160 94.5t71 249.5q0 90 -35.5 144.5t-101.5 54.5q-88 0 -150 -92q-78 -111 -78 -267
q0 -87 38 -135.5t96 -48.5zM354 -440q112 0 182 44.5t70 106.5q0 75 -149 162q-114 69 -154 88q-106 -51 -166.5 -109t-60.5 -114q0 -76 83.5 -127t194.5 -51zM575 1083q-51 0 -85.5 35.5t-34.5 95.5q-1 91 69 151t170 83l17 -57q-67 -25 -101.5 -53t-34.5 -66
q0 -29 18 -44.5t54 -25.5q23 -3 23 -37q0 -36 -28 -59t-67 -23z" />
    <glyph glyph-name="Hcircumflex" unicode="&#x124;" horiz-adv-x="1519" 
d="M1612 1329l-13 -53q-44 -4 -68.5 -7.5t-47.5 -13.5t-33 -19.5t-21 -34.5t-17 -49.5t-15 -72.5l-158 -831q-9 -46 -12.5 -71t-0.5 -48.5t10.5 -33.5t28.5 -19.5t46 -13t71 -7.5l-12 -55h-520l14 55q66 6 97 12t55 29t33 53.5t22 98.5l78 414h-670l-78 -414
q-6 -35 -9.5 -56.5t-3.5 -42.5t1.5 -32.5t10.5 -22.5t19 -16t31 -10.5t41.5 -7.5t55.5 -5l-12 -55h-508l12 55q42 4 66 7.5t45.5 13t31.5 19t21 34t16 48.5t14 71l160 831q9 47 13 72.5t1 49.5t-10.5 34t-29.5 19.5t-47 13.5t-72 8l14 53h506l-12 -53q-41 -4 -64 -8
t-45 -13.5t-32.5 -20.5t-21.5 -34t-17.5 -49.5t-14.5 -71.5l-63 -334h667l66 334q9 46 12.5 72t0.5 50t-10.5 34t-28 19.5t-44.5 13.5t-69 8l12 53h508zM1214 1446l-36 -45q-96 40 -220 119q-163 -87 -258 -119l-26 45q163 106 278 213h52q91 -110 210 -213z" />
    <glyph glyph-name="hcircumflex" unicode="&#x125;" horiz-adv-x="1046" 
d="M952 221l27 -49q-77 -89 -162 -143t-133 -54q-82 0 -35 199l109 475q18 82 13.5 114t-30.5 32q-70 0 -214 -136.5t-220 -271.5q-47 -210 -76 -373q-68 -12 -145 -39l-14 17q165 740 258 1229q9 42 11 62.5t-7 33t-23.5 15t-48.5 3.5l-59 2l6 49q71 7 140 25t110 32.5
t51 14.5q14 0 15.5 -15.5t-7.5 -56.5l-184 -849h4q92 123 193 209t186 131q79 43 137 43q117 0 57 -261l-106 -458q-9 -44 -7.5 -59t13.5 -15q16 0 58 27.5t83 66.5zM711 1524l-37 -45q-98 41 -219 118q-153 -82 -258 -118l-27 45q146 92 279 213h51q80 -99 211 -213z" />
    <glyph glyph-name="Hbar" unicode="&#x126;" horiz-adv-x="1521" 
d="M1589 1042l-18 -75h-193l-141 -723q-9 -45 -12.5 -69.5t0 -48t11 -33t29 -18.5t46.5 -12.5t71 -7.5l-12 -55h-520l14 55q120 10 151 38.5t54 150.5l80 411h-670l-78 -411q-6 -33 -9.5 -54.5t-3.5 -41.5t2 -32t11 -23t19.5 -16t30.5 -10t41 -7.5t55 -4.5l-12 -55h-508
l12 55q42 4 65 7t45 12.5t31.5 19t20.5 33.5t16 47.5t14 69.5l142 723h-201l21 75h194l12 58q8 41 11 63.5t0 43.5t-11 30.5t-30 18t-48 12.5t-73 8l14 53h506l-12 -53q-62 -7 -90.5 -13t-51 -26.5t-31 -48.5t-20.5 -88l-10 -58h670l10 58q8 41 11 64.5t-0.5 44t-10.5 30
t-28.5 18t-44.5 11.5t-68 8l12 53h508l-13 -53q-43 -4 -67.5 -7.5t-47 -13t-32.5 -18t-20.5 -30.5t-15.5 -43.5t-13 -63.5l-10 -58h196zM1208 967h-669l-43 -226h669z" />
    <glyph glyph-name="hbar" unicode="&#x127;" horiz-adv-x="1046" 
d="M944 219l27 -47q-76 -87 -161.5 -142t-135.5 -55q-78 0 -31 199q17 79 54.5 237.5t54.5 237.5q19 79 15 111.5t-30 32.5q-63 0 -208.5 -141.5t-223.5 -274.5q-35 -126 -78 -363q-68 -12 -145 -39l-14 17q84 372 237 1089h-166l25 72h158q16 72 22.5 110t5 59.5t-8.5 26
t-24 5.5l-57 8l10 49q50 8 105.5 20.5t90 20.5t44.5 8q26 0 10 -65q-13 -58 -31 -140t-22 -102h305l-24 -72h-299q-56 -260 -119 -555h4q100 132 204.5 219.5t186.5 131.5q76 43 129 43q111 0 59 -226q-21 -92 -59.5 -258.5t-52.5 -228.5q-5 -25 -7.5 -40.5t-2 -25t3.5 -13
t8 -3.5q16 0 58.5 28t82.5 66z" />
    <glyph glyph-name="Itilde" unicode="&#x128;" horiz-adv-x="686" 
d="M778 1329l-12 -53q-45 -4 -69 -7.5t-47 -12.5t-33 -17.5t-21 -30.5t-16 -44t-13 -64l-166 -862q-8 -43 -11.5 -68t0 -47t11.5 -31.5t30 -18.5t47.5 -12t72.5 -6l-12 -55h-525l15 55q44 3 69 6.5t48 12t34 18.5t22 32.5t16.5 46t14.5 67.5l166 862q8 41 11 64.5t-1 44
t-12 30t-31.5 18t-48.5 11.5t-73 8l14 53h520zM752 1622l51 -33q-32 -89 -75.5 -126.5t-88.5 -37.5q-13 0 -25.5 2t-29 8.5t-24.5 9.5t-32 14t-30 14q-6 2 -16.5 7t-17 7.5t-15.5 5.5t-17.5 4.5t-17.5 1.5q-50 0 -97 -90l-49 35q34 89 76.5 126.5t85.5 37.5q42 0 123 -37
q6 -2 20 -8.5t19.5 -8.5l16.5 -6t17.5 -5.5t14.5 -3t16 -1.5q48 0 95 84z" />
    <glyph glyph-name="itilde" unicode="&#x129;" horiz-adv-x="561" 
d="M459 223l26 -43q-57 -68 -152.5 -136.5t-146.5 -68.5q-23 0 -34.5 14t-11 60.5t19.5 126.5l127 524q18 66 -2 66q-13 0 -55 -25.5t-85 -62.5l-24 47q82 81 174 138t135 57q62 0 21 -162l-140 -565q-16 -66 4 -66q35 0 144 96zM639 1270l49 -25q-70 -174 -166 -174
q-11 0 -23 2t-20 4t-23 8.5t-21 9t-25.5 11.5t-24.5 12q-55 25 -86 25q-47 0 -98 -88l-45 30q34 88 78 129t85 41q40 0 119 -36q79 -33 109 -33q41 0 92 84z" />
    <glyph glyph-name="Imacron" unicode="&#x12a;" horiz-adv-x="686" 
d="M778 1329l-12 -53q-45 -4 -69 -7.5t-47 -12.5t-33 -17.5t-21 -30.5t-16 -44t-13 -64l-166 -862q-8 -43 -11.5 -68t0 -47t11.5 -31.5t30 -18.5t47.5 -12t72.5 -6l-12 -55h-525l15 55q44 3 69 6.5t48 12t34 18.5t22 32.5t16.5 46t14.5 67.5l166 862q8 41 11 64.5t-1 44
t-12 30t-31.5 18t-48.5 11.5t-73 8l14 53h520zM799 1565l-27 -107h-465l29 107h463z" />
    <glyph glyph-name="imacron" unicode="&#x12b;" horiz-adv-x="561" 
d="M459 223l26 -43q-57 -68 -152.5 -136.5t-146.5 -68.5q-23 0 -34.5 14t-11 60.5t19.5 126.5l127 524q18 66 -2 66q-13 0 -55 -25.5t-85 -62.5l-24 47q82 81 174 138t135 57q62 0 21 -162l-140 -565q-16 -66 4 -66q35 0 144 96zM653 1225l-26 -105h-457l25 105h458z" />
    <glyph glyph-name="Ibreve" unicode="&#x12c;" horiz-adv-x="686" 
d="M778 1329l-12 -53q-45 -4 -69 -7.5t-47 -12.5t-33 -17.5t-21 -30.5t-16 -44t-13 -64l-166 -862q-8 -43 -11.5 -68t0 -47t11.5 -31.5t30 -18.5t47.5 -12t72.5 -6l-12 -55h-525l15 55q44 3 69 6.5t48 12t34 18.5t22 32.5t16.5 46t14.5 67.5l166 862q8 41 11 64.5t-1 44
t-12 30t-31.5 18t-48.5 11.5t-73 8l14 53h520zM743 1655h64q-20 -113 -93 -174.5t-182 -61.5q-106 0 -162 62t-46 174h61q10 -52 49.5 -85.5t112.5 -33.5q136 0 196 119z" />
    <glyph glyph-name="ibreve" unicode="&#x12d;" horiz-adv-x="561" 
d="M459 223l26 -43q-57 -68 -152.5 -136.5t-146.5 -68.5q-23 0 -34.5 14t-11 60.5t19.5 126.5l127 524q18 66 -2 66q-13 0 -55 -25.5t-85 -62.5l-24 47q82 81 174 138t135 57q62 0 21 -162l-140 -565q-16 -66 4 -66q35 0 144 96zM616 1315h54q-23 -142 -97.5 -205
t-173.5 -63q-47 0 -84 13t-66.5 44t-37 82.5t3.5 128.5h51q3 -73 42.5 -112.5t107.5 -39.5q67 0 120 39.5t80 112.5z" />
    <glyph glyph-name="Iogonek" unicode="&#x12e;" horiz-adv-x="686" 
d="M778 1329l-14 -53q-44 -5 -66.5 -8t-46 -11.5t-33.5 -17t-21 -29t-16.5 -43.5t-13.5 -63l-168 -871q-8 -43 -11.5 -67.5t0.5 -46t11.5 -30.5t31 -17t48 -11t72.5 -6l-14 -55h-222q-49 -67 -87 -149t-38 -142q0 -41 25 -63.5t68 -22.5t96 21l14 -54l-117 -63
q-38 -21 -77 -21q-66 0 -106 37t-40 105q0 126 187 352h-226l13 55q65 5 95 10.5t54 26.5t33 49.5t22 91.5l168 871q8 40 11 62.5t-1 43t-12 29.5t-30.5 17.5t-48.5 12t-74 7.5l12 53h522z" />
    <glyph glyph-name="iogonek" unicode="&#x12f;" horiz-adv-x="557" 
d="M457 1335q40 0 62 -26.5t22 -65.5q2 -46 -30 -81.5t-79 -35.5q-36 0 -60 24.5t-24 63.5q-2 44 29 82.5t80 38.5zM457 223l26 -43q-59 -74 -143 -133q-82 -90 -133 -184t-51 -160q0 -78 73 -78q39 0 99 27l16 -53l-113 -66q-36 -20 -77 -20q-59 0 -97.5 37.5t-38.5 97.5
q0 71 59.5 166t139.5 174l-2 2q-30 -10 -47.5 0.5t-22.5 38t-1.5 64.5t14.5 83l127 524q18 66 -2 66q-13 0 -54.5 -25.5t-85.5 -62.5l-24 47q85 82 175.5 138.5t133.5 56.5q64 0 23 -162l-142 -565q-16 -66 4 -66q18 0 61.5 30t82.5 66z" />
    <glyph glyph-name="Idotaccent" unicode="&#x130;" horiz-adv-x="686" 
d="M778 1329l-12 -53q-45 -4 -69 -7.5t-47 -12.5t-33 -17.5t-21 -30.5t-16 -44t-13 -64l-166 -862q-8 -43 -11.5 -68t0 -47t11.5 -31.5t30 -18.5t47.5 -12t72.5 -6l-12 -55h-525l15 55q44 3 69 6.5t48 12t34 18.5t22 32.5t16.5 46t14.5 67.5l166 862q8 41 11 64.5t-1 44
t-12 30t-31.5 18t-48.5 11.5t-73 8l14 53h520zM557 1642q41 0 63.5 -26.5t22.5 -65.5q0 -48 -31.5 -83t-76.5 -35q-37 0 -61.5 25.5t-24.5 64.5q0 44 29.5 82t78.5 38z" />
    <glyph glyph-name="dotlessi" unicode="&#x131;" horiz-adv-x="561" 
d="M459 223l26 -43q-57 -68 -152.5 -136.5t-146.5 -68.5q-23 0 -34.5 14t-11 60.5t19.5 126.5l127 524q18 66 -2 66q-13 0 -55 -25.5t-85 -62.5l-24 47q82 81 174 138t135 57q62 0 21 -162l-140 -565q-16 -66 4 -66q35 0 144 96z" />
    <glyph glyph-name="IJ" unicode="&#x132;" horiz-adv-x="1339" 
d="M778 1329l-12 -53q-45 -4 -69 -7.5t-47 -12.5t-33 -17.5t-21 -30.5t-16 -44t-13 -64l-166 -862q-8 -43 -11.5 -68t0 -47t11.5 -31.5t30 -18.5t47.5 -12t72.5 -6l-12 -55h-525l15 55q44 3 69 6.5t48 12t34 18.5t22 32.5t16.5 46t14.5 67.5l166 862q8 41 11 64.5t-1 44
t-12 30t-31.5 18t-48.5 11.5t-73 8l14 53h520zM1454 1329l-12 -53q-43 -5 -64.5 -8.5t-44.5 -12.5t-31.5 -18t-19.5 -32.5t-16 -47.5t-13 -70l-153 -821q-37 -200 -104 -317.5t-185 -184.5q-43 -26 -88 -41.5t-72 -17.5l-18 59q161 48 225 222q36 90 82 321l145 780
q8 45 12 70.5t-1 48t-11.5 32t-30.5 18t-46 12t-70 8.5l12 53h504z" />
    <glyph glyph-name="ij" unicode="&#x133;" horiz-adv-x="1091" 
d="M455 1313q38 0 59 -26.5t23 -65.5q0 -48 -32 -83.5t-77 -35.5q-37 0 -60.5 25t-25.5 65q0 43 31.5 82t81.5 39zM457 223l26 -43q-55 -68 -151.5 -136.5t-147.5 -68.5q-23 0 -34.5 14t-11 60.5t19.5 126.5l127 524q18 66 -2 66q-13 0 -55 -25.5t-85 -62.5l-24 47
q82 81 175 138t136 57q60 0 21 -162l-142 -565q-16 -66 4 -66q18 0 61.5 30t82.5 66zM981 1327q38 0 60 -26.5t22 -65.5q2 -48 -30 -83.5t-77 -35.5q-37 0 -62 25t-26 65q0 44 31.5 82.5t81.5 38.5zM678 657l-27 48q90 93 184.5 154t139.5 61q33 0 36 -52t-20 -159
q-53 -279 -114 -574q-75 -375 -242 -532q-68 -67 -126 -98t-91 -31q-32 0 -61 18.5t-29 46.5q0 22 14.5 48t34.5 42q25 21 45 9q60 -33 102 -33q45 0 78 51t60 168q24 103 165 819q7 36 10.5 58t3.5 35.5t-3 18.5t-9 5q-13 0 -60.5 -32.5t-90.5 -70.5z" />
    <glyph glyph-name="Jcircumflex" unicode="&#x134;" horiz-adv-x="657" 
d="M768 1329l-14 -53q-42 -5 -63 -8.5t-44 -12.5t-31.5 -18.5t-19.5 -32t-16.5 -47t-14.5 -70.5l-153 -821q-37 -199 -104 -317t-183 -185q-94 -55 -160 -59l-20 59q163 49 227 222q38 102 82 321l145 780q8 45 11.5 70.5t-1.5 48t-11.5 32t-30.5 18t-46 12t-71 8.5l12 53
h506zM797 1446l-39 -45q-97 41 -217 119q-158 -85 -258 -119l-27 45q158 103 279 213h49q92 -111 213 -213z" />
    <glyph glyph-name="jcircumflex" unicode="&#x135;" horiz-adv-x="546" 
d="M621 1059l-46 -33q-55 61 -145 197q-125 -125 -221 -197l-41 35q167 189 264 332h47q45 -148 142 -334zM141 662l-26 43q87 92 183.5 153.5t139.5 61.5q33 0 35.5 -52t-20.5 -159q-37 -197 -115 -572q-75 -378 -242 -534q-68 -66 -126 -96.5t-91 -30.5q-32 0 -60 18
t-28 45q0 19 15 46t34 42q22 22 45 11q53 -33 101 -33q45 0 76.5 50.5t60.5 172.5q17 75 37.5 172t34.5 168.5t45 230t49 248.5q14 72 13.5 89t-9.5 28q-14 0 -63 -32.5t-89 -69.5z" />
    <glyph glyph-name="uni0136" unicode="&#x136;" horiz-adv-x="1337" 
d="M1464 1329l-14 -53q-115 -17 -167 -40t-148 -99q-111 -88 -449 -381q172 -285 373 -563q59 -79 98.5 -103.5t126.5 -34.5l-16 -55h-295q-40 62 -121 186t-144.5 223t-115.5 187q-31 51 -58.5 63.5t-60.5 -4.5l-72 -393q-7 -38 -10.5 -61t-4 -46t1 -35t10 -24.5t18 -17.5
t29.5 -10.5t40 -7.5t54 -5l-13 -55h-501l14 55q42 4 64 7t45 12.5t33 20.5t22 36t19 53.5t16 77.5l155 815q9 47 13 73t1 50t-9.5 34t-28 19.5t-45 13.5t-68.5 9l14 53h496l-12 -53q-44 -5 -67 -8.5t-46 -13.5t-33 -20t-21 -34.5t-17 -49.5t-15 -73l-70 -364q70 22 154 92
q236 199 414 377q44 41 41 58.5t-56 25.5l-61 10l14 53h473zM684 -39q50 0 85 -37t36 -96q1 -52 -21.5 -94.5t-61 -69.5t-77.5 -43.5t-82 -26.5l-16 56q68 27 102.5 53.5t34.5 65.5q0 49 -72 71q-24 7 -24 39q0 35 28 58.5t68 23.5z" />
    <glyph glyph-name="uni0137" unicode="&#x137;" horiz-adv-x="962" 
d="M895 203l35 -41q-64 -102 -124 -144.5t-101 -42.5q-36 0 -68 29t-68 107q-83 176 -155 381q-4 -5 -16.5 -18t-17 -17.5t-15 -15.5t-15 -15.5t-12.5 -13.5t-12.5 -14.5t-10 -12.5t-9.5 -13t-7 -12q-39 -187 -70 -346q-86 -16 -147 -39l-14 13q158 673 278 1255
q12 61 -0.5 75.5t-73.5 16.5l-63 2l10 49q72 8 141.5 26t110 32t49.5 14q14 0 15.5 -14t-5.5 -45q-35 -152 -102 -456t-102 -456h2q62 75 176 185q244 248 358 248q39 0 62.5 -19.5t23.5 -44.5q0 -18 -12.5 -42t-28.5 -40q-20 -17 -33 -10q-36 16 -77 16q-63 0 -136 -53
t-131 -117q26 -90 76.5 -209t91.5 -194q27 -56 44.5 -77t35.5 -21q15 0 47.5 25.5t69.5 68.5zM412 -59q50 0 84.5 -36t35.5 -95q0 -52 -22.5 -94.5t-60.5 -69.5t-76.5 -43.5t-81.5 -26.5l-17 55q67 24 102.5 51.5t35.5 67.5q0 50 -72 72q-25 4 -25 39t28.5 57.5t68.5 22.5z
" />
    <glyph glyph-name="kgreenlandic" unicode="&#x138;" horiz-adv-x="1028" 
d="M950 203l35 -41q-66 -104 -124.5 -145.5t-102.5 -41.5q-66 0 -135 129q-67 109 -172 334q-84 -84 -111 -119q-42 -156 -72 -303q-68 -13 -145 -41l-14 17q86 347 165 694q17 84 -2 84q-14 0 -55 -28t-76 -64l-30 47q78 85 162 140t128 55q37 0 41 -54t-22 -168l-60 -258
l5 -2q79 88 223 232q241 250 344 250q43 0 66.5 -19.5t23.5 -46.5q0 -18 -12.5 -42t-28.5 -40q-18 -15 -35 -12q-29 18 -80 18q-30 0 -69 -20t-85 -60.5t-76 -70t-77 -78.5q89 -196 195 -365q27 -45 43 -60t34 -15q38 0 119 94z" />
    <glyph glyph-name="Lacute" unicode="&#x139;" horiz-adv-x="1089" 
d="M991 342l58 -23q-77 -209 -131 -319h-904l13 55q43 3 68 6.5t47.5 12t33.5 18.5t22 32.5t16.5 46t14.5 67.5l168 856q6 33 9.5 53t4 40t-1.5 30t-11 21t-18.5 15.5t-31 9.5t-41 7.5t-55.5 5.5l12 53h512l-12 -53q-45 -4 -70 -7t-48.5 -12.5t-33 -18t-20.5 -32t-16 -45.5
t-13 -67l-162 -848q-21 -115 23 -148q20 -17 61.5 -21.5t122.5 -4.5q94 0 148.5 13t91.5 48q72 72 143 209zM866 1546l-6 -16l-383 -129l-26 49q62 39 174.5 110.5t154.5 98.5q19 -4 49 -46t37 -67z" />
    <glyph glyph-name="lacute" unicode="&#x13a;" horiz-adv-x="509" 
d="M440 240l31 -45q-77 -92 -171 -156t-144 -64q-82 0 -29 248q114 533 213 1010q15 66 0 84t-86 18l-55 2l8 49q70 8 140 26t112 32t51 14q13 0 15.5 -14.5t-3.5 -46.5q-60 -283 -254 -1198q-15 -72 8 -72q18 0 70.5 35.5t93.5 77.5zM711 1649l-6 -17l-383 -129l-27 49
q62 39 175 111t155 98q19 -4 49 -45.5t37 -66.5z" />
    <glyph glyph-name="uni013B" unicode="&#x13b;" horiz-adv-x="1089" 
d="M991 342l58 -23q-77 -209 -131 -319h-904l13 55q43 3 68 6.5t47.5 12t33.5 18.5t22 32.5t16.5 46t14.5 67.5l168 856q6 33 9.5 53t4 40t-1.5 30t-11 21t-18.5 15.5t-31 9.5t-41 7.5t-55.5 5.5l12 53h512l-12 -53q-45 -4 -70 -7t-48.5 -12.5t-33 -18t-20.5 -32t-16 -45.5
t-13 -67l-162 -848q-21 -115 23 -148q20 -17 61.5 -21.5t122.5 -4.5q94 0 148.5 13t91.5 48q72 72 143 209zM551 -70q51 0 86 -36t35 -95q1 -52 -21.5 -94.5t-60.5 -69.5t-77 -43t-83 -26l-16 55q67 24 103 51.5t36 65.5q0 51 -74 74q-24 3 -24 38t28 57.5t68 22.5z" />
    <glyph glyph-name="uni013C" unicode="&#x13c;" horiz-adv-x="509" 
d="M440 240l31 -45q-77 -92 -171 -156t-144 -64q-82 0 -29 248q114 533 213 1010q15 66 0 84t-86 18l-55 2l8 49q70 8 140 26t112 32t51 14q13 0 15.5 -14.5t-3.5 -46.5q-60 -283 -254 -1198q-15 -72 8 -72q18 0 70.5 35.5t93.5 77.5zM186 -74q50 0 85 -37t36 -96
q0 -52 -22.5 -94t-60.5 -69t-76.5 -43.5t-81.5 -26.5l-17 55q68 27 102.5 53.5t34.5 65.5q0 49 -71 71q-25 7 -25 39q0 35 28 58.5t68 23.5z" />
    <glyph glyph-name="Lcaron" unicode="&#x13d;" horiz-adv-x="1089" 
d="M991 342l58 -23q-77 -209 -131 -319h-904l13 55q43 3 68 6.5t47.5 12t33.5 18.5t22 32.5t16.5 46t14.5 67.5l168 856q6 33 9.5 53t4 40t-1.5 30t-11 21t-18.5 15.5t-31 9.5t-41 7.5t-55.5 5.5l12 53h512l-12 -53q-45 -4 -70 -7t-48.5 -12.5t-33 -18t-20.5 -32t-16 -45.5
t-13 -67l-162 -848q-21 -115 23 -148q20 -17 61.5 -21.5t122.5 -4.5q94 0 148.5 13t91.5 48q72 72 143 209zM950 1348q44 0 73.5 -36t29.5 -95q0 -87 -59.5 -145t-145.5 -83l-23 51q56 28 85.5 56t29.5 65q0 27 -11.5 42t-37.5 28q-19 8 -19 41q0 29 23.5 52.5t54.5 23.5z
" />
    <glyph glyph-name="lcaron" unicode="&#x13e;" horiz-adv-x="509" 
d="M440 240l31 -45q-77 -92 -171 -156t-144 -64q-82 0 -29 248q114 533 213 1010q15 66 0 84t-86 18l-55 2l8 49q70 8 140 26t112 32t51 14q13 0 15.5 -14.5t-3.5 -46.5q-60 -283 -254 -1198q-15 -72 8 -72q18 0 70.5 35.5t93.5 77.5zM707 1452q43 0 71.5 -36t28.5 -95
q0 -87 -59.5 -144.5t-145.5 -82.5l-20 53q55 26 83.5 54t28.5 67q0 26 -11 41t-36 26q-20 10 -20 41t24 53.5t56 22.5z" />
    <glyph glyph-name="Ldot" unicode="&#x13f;" horiz-adv-x="1089" 
d="M991 342l58 -23q-77 -209 -131 -319h-904l13 55q43 3 68 6.5t47.5 12t33.5 18.5t22 32.5t16.5 46t14.5 67.5l168 856q6 33 9.5 53t4 40t-1.5 30t-11 21t-18.5 15.5t-31 9.5t-41 7.5t-55.5 5.5l12 53h512l-12 -53q-45 -4 -70 -7t-48.5 -12.5t-33 -18t-20.5 -32t-16 -45.5
t-13 -67l-162 -848q-21 -115 23 -148q20 -17 61.5 -21.5t122.5 -4.5q94 0 148.5 13t91.5 48q72 72 143 209zM815 819q41 0 63.5 -26t22.5 -64q0 -48 -31.5 -83.5t-76.5 -35.5q-36 0 -61 25.5t-25 64.5q0 44 29.5 81.5t78.5 37.5z" />
    <glyph glyph-name="ldot" unicode="&#x140;" horiz-adv-x="563" 
d="M440 240l29 -45q-73 -91 -167.5 -155.5t-143.5 -64.5q-86 0 -33 248q36 168 107.5 505t107.5 505q14 66 -1 84t-85 18l-55 2l6 49q70 8 140.5 26t112.5 32t50 14q15 0 17.5 -14.5t-3.5 -46.5q-60 -283 -254 -1198q-15 -72 8 -72q19 0 70.5 35t93.5 78zM588 848
q40 0 62 -26.5t22 -65.5q0 -48 -31 -82.5t-76 -34.5q-37 0 -61.5 24.5t-24.5 63.5q0 44 30 82.5t79 38.5z" />
    <glyph glyph-name="Lslash" unicode="&#x141;" horiz-adv-x="1126" 
d="M1030 338l60 -21q-121 -296 -132 -317h-907l15 55q45 3 68.5 6t47.5 11.5t34 17.5t21.5 32.5t17.5 48t15 71.5l64 338l-217 -146l20 101l217 143l80 420q8 42 11.5 66.5t-0.5 45.5t-11 30.5t-30 17.5t-46 11t-69 7l14 53h510l-12 -53q-46 -5 -68.5 -7.5t-47 -11.5
t-33 -17t-20 -30.5t-16.5 -45t-14 -66.5l-61 -303l278 184l-28 -107l-269 -180l-82 -446q-21 -113 25 -148q35 -28 178 -28q108 0 158 12t88 49q34 31 64.5 77.5t76.5 129.5z" />
    <glyph glyph-name="lslash" unicode="&#x142;" horiz-adv-x="567" 
d="M641 1010l-18 -101l-201 -153l-113 -547q-16 -86 8 -86q18 0 69.5 37t90.5 78l31 -48q-74 -90 -163.5 -152.5t-145.5 -62.5q-22 0 -35 19t-16.5 68.5t16.5 136.5l90 428l-178 -140l18 103l182 139l109 506q14 66 -1.5 83.5t-88.5 18.5l-59 2l12 52q69 6 138.5 23
t112.5 30.5t54 13.5q24 0 12 -59l-121 -543z" />
    <glyph glyph-name="Nacute" unicode="&#x143;" horiz-adv-x="1443" 
d="M1569 1329l-13 -53q-89 -6 -123 -32t-55 -97q-34 -114 -78 -348l-155 -815h-62l-606 1085h-6l-106 -545q-48 -241 -54 -344q-3 -69 31.5 -93t142.5 -32l-12 -55h-469l12 55q82 5 121.5 30t59.5 89q33 98 86 356l106 504q14 79 11.5 111t-23.5 67q-19 32 -53.5 45
t-120.5 19l12 53h295l604 -1042h8l95 512q47 240 55 350q4 72 -29.5 95.5t-148.5 31.5l14 53h461zM1182 1546l-6 -16l-383 -129l-27 49q62 39 175 111t155 98q19 -4 49 -46t37 -67z" />
    <glyph glyph-name="nacute" unicode="&#x144;" horiz-adv-x="1089" 
d="M985 223l29 -49q-86 -93 -166 -146t-123 -53q-83 0 -33 213q6 25 111 455q14 57 15.5 90.5t-6.5 45.5t-26 12q-65 0 -207 -145.5t-223 -283.5q-52 -207 -80 -346q-69 -13 -147 -41l-12 17q122 491 166 694q20 82 -2 82q-14 0 -55.5 -28t-78.5 -64l-26 49q80 87 162 141
t127 54q72 0 16 -228l-43 -178h4q94 129 196 221t181 139q79 46 137 46q17 0 29.5 -5t24.5 -23t16 -48.5t-1.5 -86t-23.5 -130.5q-11 -46 -45.5 -195t-54.5 -231q-16 -74 4 -74q14 0 52.5 27t82.5 69zM946 1354l-317 -348l-47 32q47 73 108.5 178.5t79.5 139.5
q20 7 84.5 15.5t85.5 4.5z" />
    <glyph glyph-name="uni0145" unicode="&#x145;" horiz-adv-x="1443" 
d="M1569 1329l-13 -53q-89 -6 -123 -32t-55 -97q-34 -114 -78 -348l-155 -815h-62l-606 1085h-6l-106 -545q-48 -241 -54 -344q-3 -69 31.5 -93t142.5 -32l-12 -55h-469l12 55q82 5 121.5 30t59.5 89q33 98 86 356l106 504q14 79 11.5 111t-23.5 67q-19 32 -53.5 45
t-120.5 19l12 53h295l604 -1042h8l95 512q47 240 55 350q4 72 -29.5 95.5t-148.5 31.5l14 53h461zM702 -20q51 0 86 -37.5t35 -96.5q1 -52 -21.5 -94t-60 -69t-77 -43.5t-82.5 -26.5l-17 57q69 25 104.5 51.5t35.5 65.5q0 49 -74 72q-25 7 -25 39q0 35 28 58.5t68 23.5z" />
    <glyph glyph-name="uni0146" unicode="&#x146;" horiz-adv-x="1089" 
d="M985 223l29 -49q-86 -93 -166 -146t-123 -53q-83 0 -33 213q6 25 111 455q14 57 15.5 90.5t-6.5 45.5t-26 12q-65 0 -207 -145.5t-223 -283.5q-52 -207 -80 -346q-69 -13 -147 -41l-12 17q122 491 166 694q20 82 -2 82q-14 0 -55.5 -28t-78.5 -64l-26 49q80 87 162 141
t127 54q72 0 16 -228l-43 -178h4q94 129 196 221t181 139q79 46 137 46q17 0 29.5 -5t24.5 -23t16 -48.5t-1.5 -86t-23.5 -130.5q-11 -46 -45.5 -195t-54.5 -231q-16 -74 4 -74q14 0 52.5 27t82.5 69zM471 -86q51 0 86 -36t35 -95q1 -52 -21.5 -94.5t-61 -69.5t-77.5 -43.5
t-82 -26.5l-16 56q67 24 102 51.5t35 67.5q0 49 -72 71q-24 3 -24 39q0 35 28 57.5t68 22.5z" />
    <glyph glyph-name="Ncaron" unicode="&#x147;" horiz-adv-x="1443" 
d="M1569 1329l-13 -53q-89 -6 -123 -32t-55 -97q-34 -114 -78 -348l-155 -815h-62l-606 1085h-6l-106 -545q-48 -241 -54 -344q-3 -69 31.5 -93t142.5 -32l-12 -55h-469l12 55q82 5 121.5 30t59.5 89q33 98 86 356l106 504q14 79 11.5 111t-23.5 67q-19 32 -53.5 45
t-120.5 19l12 53h295l604 -1042h8l95 512q47 240 55 350q4 72 -29.5 95.5t-148.5 31.5l14 53h461zM1182 1634l26 -45q-163 -108 -278 -213h-51q-79 97 -211 213l39 45q98 -44 217 -118q144 77 258 118z" />
    <glyph glyph-name="ncaron" unicode="&#x148;" horiz-adv-x="1089" 
d="M985 223l29 -49q-86 -93 -166 -146t-123 -53q-83 0 -33 213q6 25 111 455q14 57 15.5 90.5t-6.5 45.5t-26 12q-65 0 -207 -145.5t-223 -283.5q-52 -207 -80 -346q-69 -13 -147 -41l-12 17q122 491 166 694q20 82 -2 82q-14 0 -55.5 -28t-78.5 -64l-26 49q80 87 162 141
t127 54q72 0 16 -228l-43 -178h4q94 129 196 221t181 139q79 46 137 46q17 0 29.5 -5t24.5 -23t16 -48.5t-1.5 -86t-23.5 -130.5q-11 -46 -45.5 -195t-54.5 -231q-16 -74 4 -74q14 0 52.5 27t82.5 69zM885 1378l45 -37q-166 -188 -266 -331h-46q-49 154 -145 331l51 37
q77 -93 142 -196q121 117 219 196z" />
    <glyph glyph-name="napostrophe" unicode="&#x149;" horiz-adv-x="1091" 
d="M164 1028l-19 55q77 31 121 67t47 91q5 76 -102 107q-9 2 -16.5 10t-6.5 20q3 36 31 57t60 21q63 0 112.5 -48.5t46.5 -131.5q-2 -51 -28 -94.5t-68 -73t-86 -49t-92 -31.5zM977 221l31 -49q-83 -91 -164.5 -144t-124.5 -53q-81 0 -33 205q64 257 117 488
q17 70 13.5 96.5t-25.5 26.5q-64 0 -212.5 -153.5t-226.5 -291.5q-40 -141 -78 -330q-68 -13 -145 -41l-14 17q94 363 168 694q17 82 -4 82q-14 0 -54 -28t-78 -64l-26 49q80 87 162 141t125 54q71 0 18 -228l-43 -186h4q164 233 385 368q76 46 135 46q101 0 45 -240
q-97 -419 -112 -481q-16 -70 6 -70q15 0 53.5 26t77.5 66z" />
    <glyph glyph-name="Eng" unicode="&#x14a;" horiz-adv-x="1443" 
d="M1569 1329l-13 -53q-86 -5 -122.5 -29.5t-53.5 -93.5q-48 -181 -80 -354l-124 -656q-32 -167 -62.5 -271.5t-77.5 -176.5q-88 -137 -207 -137q-36 0 -61 18t-25 45q0 30 23.5 64t42.5 34q11 0 34 -11t48 -11q51 0 98.5 78t77.5 239l-590 1055h-4l-106 -541
q-41 -210 -54 -350q-4 -69 31 -93t143 -32l-12 -53h-471l14 53q82 6 122 31t59 90q30 94 84 354l106 506q14 79 11.5 111t-23.5 67q-18 30 -55.5 45t-118.5 19l12 53h297l604 -1042h4l97 512q45 244 53 358q6 68 -31.5 90.5t-146.5 28.5l14 53h463z" />
    <glyph glyph-name="eng" unicode="&#x14b;" horiz-adv-x="1056" 
d="M145 680l-30 45q75 82 159.5 138.5t131.5 56.5q70 0 16 -228l-45 -196h4q181 246 399 381q73 43 131 43q19 0 31.5 -8.5t22 -30.5t7 -67t-17.5 -112q-60 -298 -102 -495q-42 -193 -95 -301t-139 -185q-69 -63 -130 -93.5t-99 -30.5q-32 0 -57 16.5t-25 44.5q0 21 15 49.5
t34 46.5q25 18 45 8q45 -30 97 -30q54 0 93 63t68 203l146 682q12 62 8.5 85t-22.5 23q-61 0 -212 -155t-229 -289q-36 -132 -76 -328q-69 -13 -147 -41l-14 17q72 278 166 694q18 84 -3 84q-14 0 -53.5 -26.5t-77.5 -63.5z" />
    <glyph glyph-name="Omacron" unicode="&#x14c;" horiz-adv-x="1449" 
d="M881 1362q243 0 393.5 -164.5t150.5 -423.5q0 -161 -56 -308.5t-153 -257t-237 -174.5t-299 -65q-242 0 -393.5 161.5t-151.5 420.5q0 213 96.5 398.5t269.5 299t380 113.5zM864 1290q-116 0 -218 -68t-169.5 -177t-106 -243.5t-38.5 -269.5q0 -141 38 -249.5t121.5 -175
t204.5 -66.5q99 0 186.5 46t150 122.5t108 174.5t68 203.5t22.5 207.5q0 106 -20.5 193t-63 156t-114.5 107.5t-169 38.5zM1153 1571l-27 -105h-464l28 105h463z" />
    <glyph glyph-name="omacron" unicode="&#x14d;" horiz-adv-x="962" 
d="M365 -25q-71 0 -124.5 26.5t-84.5 72t-46.5 101t-15.5 120.5q0 191 88.5 339t223.5 220q125 66 221 66q128 0 200 -84t72 -236q0 -137 -57.5 -273.5t-161.5 -222.5q-153 -129 -315 -129zM438 57q34 0 66 13q88 37 155.5 187t67.5 339q0 120 -46 183t-120 63
q-34 0 -78 -19q-33 -14 -68 -52.5t-70 -100t-57 -158t-22 -207.5q0 -115 45.5 -181.5t126.5 -66.5zM860 1225l-24 -105h-459l26 105h457z" />
    <glyph glyph-name="Obreve" unicode="&#x14e;" horiz-adv-x="1449" 
d="M881 1362q243 0 393.5 -164.5t150.5 -423.5q0 -161 -56 -308.5t-153 -257t-237 -174.5t-299 -65q-242 0 -393.5 161.5t-151.5 420.5q0 213 96.5 398.5t269.5 299t380 113.5zM864 1290q-116 0 -218 -68t-169.5 -177t-106 -243.5t-38.5 -269.5q0 -141 38 -249.5t121.5 -175
t204.5 -66.5q99 0 186.5 46t150 122.5t108 174.5t68 203.5t22.5 207.5q0 106 -20.5 193t-63 156t-114.5 107.5t-169 38.5zM1110 1661h64q-20 -114 -93 -176t-182 -62q-106 0 -162.5 62t-46.5 176h62q8 -52 48 -86.5t113 -34.5q137 0 197 121z" />
    <glyph glyph-name="obreve" unicode="&#x14f;" horiz-adv-x="962" 
d="M365 -25q-71 0 -124.5 26.5t-84.5 72t-46.5 101t-15.5 120.5q0 191 88.5 339t223.5 220q125 66 221 66q128 0 200 -84t72 -236q0 -137 -57.5 -273.5t-161.5 -222.5q-153 -129 -315 -129zM438 57q34 0 66 13q88 37 155.5 187t67.5 339q0 120 -46 183t-120 63
q-34 0 -78 -19q-33 -14 -68 -52.5t-70 -100t-57 -158t-22 -207.5q0 -115 45.5 -181.5t126.5 -66.5zM811 1315h53q-12 -74 -39 -128t-65 -83.5t-79 -43t-87 -13.5q-47 0 -84 13t-66.5 44t-37 82.5t3.5 128.5h51q3 -73 42 -112.5t107 -39.5q67 0 120.5 39.5t80.5 112.5z" />
    <glyph glyph-name="Ohungarumlaut" unicode="&#x150;" horiz-adv-x="1449" 
d="M881 1362q243 0 393.5 -164.5t150.5 -423.5q0 -161 -56 -308.5t-153 -257t-237 -174.5t-299 -65q-242 0 -393.5 161.5t-151.5 420.5q0 213 96.5 398.5t269.5 299t380 113.5zM864 1290q-116 0 -218 -68t-169.5 -177t-106 -243.5t-38.5 -269.5q0 -141 38 -249.5t121.5 -175
t204.5 -66.5q99 0 186.5 46t150 122.5t108 174.5t68 203.5t22.5 207.5q0 106 -20.5 193t-63 156t-114.5 107.5t-169 38.5zM958 1669v-29l-215 -219l-49 31q68 128 129 254q23 6 72 -8t63 -29zM1237 1669v-29l-215 -219l-49 31q70 132 129 254q23 6 71.5 -9t63.5 -28z" />
    <glyph glyph-name="ohungarumlaut" unicode="&#x151;" horiz-adv-x="962" 
d="M365 -25q-71 0 -124.5 26.5t-84.5 72t-46.5 101t-15.5 120.5q0 191 88.5 339t223.5 220q125 66 221 66q128 0 200 -84t72 -236q0 -137 -57.5 -273.5t-161.5 -222.5q-153 -129 -315 -129zM438 57q34 0 66 13q88 37 155.5 187t67.5 339q0 120 -46 183t-120 63
q-34 0 -78 -19q-33 -14 -68 -52.5t-70 -100t-57 -158t-22 -207.5q0 -115 45.5 -181.5t126.5 -66.5zM674 1327l-236 -323l-53 32q52 115 131 305q21 6 78 9.5t76 -0.5zM948 1327l-235 -323l-49 32q111 271 124 305q21 6 78.5 9.5t75.5 -0.5z" />
    <glyph glyph-name="OE" unicode="&#x152;" horiz-adv-x="1939" 
d="M1755 0h-620q-71 0 -185 -12q-104 -11 -170 -11q-146 0 -261 38t-184 97t-114.5 138.5t-62.5 154.5t-17 154q0 153 45.5 283t126.5 223.5t190.5 159t238.5 97t270 30.5q87 0 205.5 -11.5t168.5 -11.5h556q-7 -69 -35 -307l-60 -4q-3 129 -26 178q-18 37 -59.5 51.5
t-151.5 14.5h-154q-50 0 -61.5 -11t-22.5 -69l-88 -451h195q69 0 104 4t62 23t39 44t32 81h60l-78 -387h-58q-2 27 0 48t-2.5 37t-7 28t-14 20t-22.5 13t-32.5 8t-44.5 4t-59 1h-188l-68 -364q-17 -91 -15 -133.5t25 -59.5q20 -18 65 -23t140 -5q115 0 172 14t99 55
q66 63 139 195l55 -19q-5 -12 -57.5 -145t-69.5 -170zM1018 207l178 932q10 56 2 78.5t-35 33.5q-76 31 -186 31q-128 0 -241.5 -45.5t-203 -132t-142 -226.5t-52.5 -315q0 -67 11.5 -132t43.5 -137.5t82 -125.5t135 -87t195 -32q78 0 135 25q29 12 47.5 43.5t30.5 89.5z
" />
    <glyph glyph-name="oe" unicode="&#x153;" horiz-adv-x="1409" 
d="M1305 262l32 -47q-217 -240 -430 -240q-31 0 -60.5 8.5t-59.5 28.5t-53 58t-34 90h-4q-58 -79 -157 -132t-187 -53q-54 0 -98.5 19t-73.5 50t-49 73t-28.5 87t-8.5 93q0 188 84 334.5t211 218.5q125 70 227 70q83 0 143.5 -48t84.5 -137h4q71 75 176 130t186 55
q80 0 128 -46.5t48 -115.5q0 -57 -37 -110t-93 -92t-132.5 -73.5t-144.5 -56.5t-139 -39q-4 -27 -4 -57q0 -234 159 -234q138 0 310 166zM1229 727q0 51 -27 77.5t-72 26.5q-54 0 -98 -28q-22 -13 -45 -36t-51.5 -63t-52 -105t-35.5 -144q205 55 292 123t89 149zM717 602
q0 120 -44 180t-120 60q-31 0 -74 -17q-32 -13 -66.5 -48.5t-68.5 -95t-56 -155t-22 -209.5q0 -115 40 -186.5t120 -71.5q35 0 68 17q78 35 150.5 185.5t72.5 340.5z" />
    <glyph glyph-name="Racute" unicode="&#x154;" horiz-adv-x="1226" 
d="M1198 35l-16 -51h-21q-98 5 -160 27t-101.5 61.5t-78.5 111.5q-62 118 -139 303q-25 59 -51 78t-82 19h-86l-60 -324q-10 -49 -14 -77t-0.5 -52.5t10.5 -35.5t29.5 -20.5t47 -12.5t71.5 -7l-12 -55h-515l13 55q45 5 68 8t47 12.5t34 20t22 35.5t18 52t16 77l157 823
q7 36 10.5 57t4 42.5t-0.5 32t-10 22.5t-18 16t-30 9.5t-40 8t-55 5.5l14 53h445q198 0 291 -63q120 -81 120 -252q0 -98 -46.5 -179t-115 -131.5t-155.5 -80.5q66 -163 123 -275q74 -145 127 -215q34 -44 65 -64t74 -34zM475 647h96q143 0 220 51q70 48 111.5 127t41.5 172
q0 131 -64 200t-178 69q-65 0 -92 -21q-25 -17 -39 -90zM1042 1546l-4 -16l-383 -129l-26 49q263 168 329 209q19 -4 49 -46t35 -67z" />
    <glyph glyph-name="racute" unicode="&#x155;" horiz-adv-x="749" 
d="M127 672l-27 47q76 85 160 143t127 58q37 0 42 -65.5t-19 -172.5l-21 -102h6q79 153 162.5 246.5t144.5 93.5q26 0 50.5 -15t38.5 -37q22 -43 -3 -88q-18 -31 -53 -59q-28 -19 -45 -2q-32 35 -69 35q-44 0 -105 -86q-104 -153 -145 -254q-33 -136 -82 -402
q-67 -9 -146 -37l-16 17q99 409 149 690q9 51 8.5 69.5t-12.5 18.5q-14 0 -57.5 -28.5t-87.5 -69.5zM807 1354l-315 -348l-50 32q48 72 110.5 177.5t80.5 140.5q20 7 83.5 15.5t86.5 4.5z" />
    <glyph glyph-name="uni0156" unicode="&#x156;" horiz-adv-x="1226" 
d="M1198 35l-16 -51h-21q-98 5 -160 27t-101.5 61.5t-78.5 111.5q-62 118 -139 303q-25 59 -51 78t-82 19h-86l-60 -324q-10 -49 -14 -77t-0.5 -52.5t10.5 -35.5t29.5 -20.5t47 -12.5t71.5 -7l-12 -55h-515l13 55q45 5 68 8t47 12.5t34 20t22 35.5t18 52t16 77l157 823
q7 36 10.5 57t4 42.5t-0.5 32t-10 22.5t-18 16t-30 9.5t-40 8t-55 5.5l14 53h445q198 0 291 -63q120 -81 120 -252q0 -98 -46.5 -179t-115 -131.5t-155.5 -80.5q66 -163 123 -275q74 -145 127 -215q34 -44 65 -64t74 -34zM475 647h96q143 0 220 51q70 48 111.5 127t41.5 172
q0 131 -64 200t-178 69q-65 0 -92 -21q-25 -17 -39 -90zM680 -39q51 0 86 -37t35 -96q1 -52 -21.5 -94t-60.5 -69.5t-77.5 -44t-82.5 -26.5l-16 58q69 25 104 51.5t35 65.5q0 48 -74 71q-22 6 -22 39q0 35 27 58.5t67 23.5z" />
    <glyph glyph-name="uni0157" unicode="&#x157;" horiz-adv-x="749" 
d="M127 672l-27 47q76 85 160 143t127 58q37 0 42 -65.5t-19 -172.5l-21 -102h6q79 153 162.5 246.5t144.5 93.5q26 0 50.5 -15t38.5 -37q22 -43 -3 -88q-18 -31 -53 -59q-28 -19 -45 -2q-32 35 -69 35q-44 0 -105 -86q-104 -153 -145 -254q-33 -136 -82 -402
q-67 -9 -146 -37l-16 17q99 409 149 690q9 51 8.5 69.5t-12.5 18.5q-14 0 -57.5 -28.5t-87.5 -69.5zM195 -78q50 0 84.5 -36t35.5 -95q0 -52 -22.5 -94.5t-60.5 -69.5t-76.5 -43.5t-81.5 -27.5l-17 57q67 25 102.5 52t35.5 65q0 51 -72 73q-25 4 -25 39t28.5 57.5t68.5 22.5
z" />
    <glyph glyph-name="Rcaron" unicode="&#x158;" horiz-adv-x="1226" 
d="M1198 35l-16 -51h-21q-98 5 -160 27t-101.5 61.5t-78.5 111.5q-62 118 -139 303q-25 59 -51 78t-82 19h-86l-60 -324q-10 -49 -14 -77t-0.5 -52.5t10.5 -35.5t29.5 -20.5t47 -12.5t71.5 -7l-12 -55h-515l13 55q45 5 68 8t47 12.5t34 20t22 35.5t18 52t16 77l157 823
q7 36 10.5 57t4 42.5t-0.5 32t-10 22.5t-18 16t-30 9.5t-40 8t-55 5.5l14 53h445q198 0 291 -63q120 -81 120 -252q0 -98 -46.5 -179t-115 -131.5t-155.5 -80.5q66 -163 123 -275q74 -145 127 -215q34 -44 65 -64t74 -34zM475 647h96q143 0 220 51q70 48 111.5 127t41.5 172
q0 131 -64 200t-178 69q-65 0 -92 -21q-25 -17 -39 -90zM989 1665l29 -45q-175 -116 -279 -213h-51q-79 97 -211 213l39 45q87 -40 217 -119q149 79 256 119z" />
    <glyph glyph-name="rcaron" unicode="&#x159;" horiz-adv-x="749" 
d="M127 672l-27 47q76 85 160 143t127 58q37 0 42 -65.5t-19 -172.5l-21 -102h6q79 153 162.5 246.5t144.5 93.5q26 0 50.5 -15t38.5 -37q22 -43 -3 -88q-18 -31 -53 -59q-28 -19 -45 -2q-32 35 -69 35q-44 0 -105 -86q-104 -153 -145 -254q-33 -136 -82 -402
q-67 -9 -146 -37l-16 17q99 409 149 690q9 51 8.5 69.5t-12.5 18.5q-14 0 -57.5 -28.5t-87.5 -69.5zM745 1378l46 -37q-171 -193 -267 -331h-45q-57 168 -145 331l51 37q55 -66 141 -196q131 127 219 196z" />
    <glyph glyph-name="Sacute" unicode="&#x15a;" horiz-adv-x="958" 
d="M78 399l55 7q10 -65 31 -124t58.5 -116.5t100 -92t142.5 -34.5q110 0 178 72t68 192q0 82 -46 146.5t-145 142.5l-57 45q-38 31 -61 51t-59.5 58.5t-57 72t-36.5 80.5t-16 96q0 160 116 263.5t300 103.5q95 0 195 -35q47 -17 90 -33q-4 -38 -5 -86.5t-0.5 -108.5
t-0.5 -91l-60 -7q-7 63 -21 111.5t-41 91.5t-73.5 66.5t-109.5 23.5q-103 0 -166.5 -70.5t-63.5 -168.5q0 -81 47 -140.5t144 -134.5l61 -45q118 -88 178 -175t60 -200q0 -116 -63 -206.5t-164 -137.5t-220 -47q-112 0 -212 41t-140 86q-1 21 -2.5 123t-3.5 180zM956 1579
l-4 -16l-385 -129l-24 49q171 109 327 209q19 -4 50 -46t36 -67z" />
    <glyph glyph-name="sacute" unicode="&#x15b;" horiz-adv-x="690" 
d="M231 -25q-73 0 -139.5 47t-66.5 101q-3 51 59 86q35 17 51 -6q39 -59 92 -92t105 -33q60 0 97.5 36t37.5 87q0 41 -25 79.5t-94 92.5q-85 65 -131.5 122.5t-46.5 127.5q0 105 106 198q48 42 113.5 70.5t114.5 28.5q65 0 112.5 -36.5t47.5 -78.5q0 -54 -52 -84
q-27 -16 -45 8q-74 92 -159 92q-46 0 -78.5 -31.5t-32.5 -82.5q0 -50 33 -91t100 -92q95 -71 133.5 -123t38.5 -116q0 -75 -58 -148t-144.5 -117.5t-168.5 -44.5zM776 1354l-317 -348l-47 32q47 73 108.5 178.5t79.5 139.5q20 7 84.5 15.5t85.5 4.5z" />
    <glyph glyph-name="Scircumflex" unicode="&#x15c;" horiz-adv-x="958" 
d="M78 399l55 7q10 -65 31 -124t58.5 -116.5t100 -92t142.5 -34.5q110 0 178 72t68 192q0 82 -46 146.5t-145 142.5l-57 45q-38 31 -61 51t-59.5 58.5t-57 72t-36.5 80.5t-16 96q0 160 116 263.5t300 103.5q95 0 195 -35q47 -17 90 -33q-4 -38 -5 -86.5t-0.5 -108.5
t-0.5 -91l-60 -7q-7 63 -21 111.5t-41 91.5t-73.5 66.5t-109.5 23.5q-103 0 -166.5 -70.5t-63.5 -168.5q0 -81 47 -140.5t144 -134.5l61 -45q118 -88 178 -175t60 -200q0 -116 -63 -206.5t-164 -137.5t-220 -47q-112 0 -212 41t-140 86q-1 21 -2.5 123t-3.5 180zM918 1466
l-37 -45q-93 39 -219 119q-161 -86 -259 -119l-26 45q163 106 278 213h52q89 -106 211 -213z" />
    <glyph glyph-name="scircumflex" unicode="&#x15d;" horiz-adv-x="690" 
d="M231 -25q-73 0 -139.5 47t-66.5 101q-3 51 59 86q35 17 51 -6q39 -59 92 -92t105 -33q60 0 97.5 36t37.5 87q0 41 -25 79.5t-94 92.5q-85 65 -131.5 122.5t-46.5 127.5q0 105 106 198q48 42 113.5 70.5t114.5 28.5q65 0 112.5 -36.5t47.5 -78.5q0 -54 -52 -84
q-27 -16 -45 8q-74 92 -159 92q-46 0 -78.5 -31.5t-32.5 -82.5q0 -50 33 -91t100 -92q95 -71 133.5 -123t38.5 -116q0 -75 -58 -148t-144.5 -117.5t-168.5 -44.5zM696 1036l-47 -35q-63 70 -143 197q-136 -132 -223 -197l-41 35q177 204 266 334h45q48 -152 143 -334z" />
    <glyph glyph-name="uni015E" unicode="&#x15e;" horiz-adv-x="958" 
d="M78 399l55 7q8 -64 29.5 -124t59 -117t100.5 -91.5t143 -34.5q110 0 178 72t68 192q0 84 -46 150t-143 141l-63 47q-45 34 -76 62t-70 73.5t-59.5 100t-20.5 114.5q0 162 117.5 266.5t302.5 104.5q91 0 191 -35l88 -33q-4 -50 -4 -156.5v-129.5l-60 -7q-6 63 -21 111.5
t-43 91t-75.5 65.5t-112.5 23q-104 0 -163.5 -68.5t-59.5 -166.5q0 -82 48.5 -145t142.5 -130l61 -47q116 -83 177 -170t61 -200q0 -165 -117.5 -273.5t-286.5 -120.5l-22 -26q-22 -27 -22.5 -42t20.5 -40q34 -40 47.5 -69.5t13.5 -63.5q-3 -57 -71.5 -112.5t-170.5 -86.5
l-26 53q135 61 141 121q0 6 -1 12.5t-4 13t-5 11t-6.5 11t-7 9.5t-7.5 9.5t-6 7.5q-32 36 -34.5 59.5t24.5 59.5l59 73q-100 6 -189.5 44t-127.5 81q-1 21 -2.5 123t-3.5 180z" />
    <glyph glyph-name="uni015F" unicode="&#x15f;" horiz-adv-x="684" 
d="M504 920q63 0 111.5 -38t46.5 -77q0 -56 -52 -86q-27 -16 -45 8q-70 94 -157 94q-44 0 -77 -31.5t-34 -82.5q0 -51 33.5 -92.5t99.5 -92.5q92 -72 129 -122.5t37 -114.5q0 -94 -85 -179.5t-196 -115.5l-30 -39q-23 -27 -23.5 -41.5t21.5 -40.5q62 -76 59 -133
q-3 -59 -72 -114t-170 -85l-26 55q135 61 141 119q2 27 -35 74q-32 37 -35 59.5t25 57.5l59 73v2q-70 -3 -139.5 43.5t-69.5 100.5q0 26 17.5 49t44.5 35q33 16 49 -6q39 -58 91.5 -89.5t105.5 -31.5q61 0 97 35.5t36 87.5q0 41 -25 79.5t-92 92.5q-84 67 -129 124t-45 126
q0 105 106 198q49 41 114 70t114 29z" />
    <glyph glyph-name="Scaron" unicode="&#x160;" horiz-adv-x="958" 
d="M78 399l55 7q10 -65 31 -124t58.5 -116.5t100 -92t142.5 -34.5q110 0 178 72t68 192q0 82 -46 146.5t-145 142.5l-57 45q-38 31 -61 51t-59.5 58.5t-57 72t-36.5 80.5t-16 96q0 160 116 263.5t300 103.5q95 0 195 -35q47 -17 90 -33q-4 -38 -5 -86.5t-0.5 -108.5
t-0.5 -91l-60 -7q-7 63 -21 111.5t-41 91.5t-73.5 66.5t-109.5 23.5q-103 0 -166.5 -70.5t-63.5 -168.5q0 -81 47 -140.5t144 -134.5l61 -45q118 -88 178 -175t60 -200q0 -116 -63 -206.5t-164 -137.5t-220 -47q-112 0 -212 41t-140 86q-1 21 -2.5 123t-3.5 180zM907 1698
l27 -45q-168 -112 -277 -213h-51q-82 98 -213 213l39 45q96 -43 219 -121q137 78 256 121z" />
    <glyph glyph-name="scaron" unicode="&#x161;" horiz-adv-x="690" 
d="M231 -25q-73 0 -139.5 47t-66.5 101q-3 51 59 86q35 17 51 -6q39 -59 92 -92t105 -33q60 0 97.5 36t37.5 87q0 41 -25 79.5t-94 92.5q-85 65 -131.5 122.5t-46.5 127.5q0 105 106 198q48 42 113.5 70.5t114.5 28.5q65 0 112.5 -36.5t47.5 -78.5q0 -54 -52 -84
q-27 -16 -45 8q-74 92 -159 92q-46 0 -78.5 -31.5t-32.5 -82.5q0 -50 33 -91t100 -92q95 -71 133.5 -123t38.5 -116q0 -75 -58 -148t-144.5 -117.5t-168.5 -44.5zM713 1378l45 -37q-166 -188 -266 -331h-46q-49 154 -145 331l51 37q77 -93 142 -196q131 127 219 196z" />
    <glyph glyph-name="uni0162" unicode="&#x162;" horiz-adv-x="1234" 
d="M1303 1380h43q-25 -141 -48 -358l-61 -6q0 128 -25 182q-14 37 -58 50.5t-161 13.5h-123l-190 -1016q-8 -45 -11.5 -71t1 -49t13.5 -33.5t33.5 -19t52.5 -12t79 -6.5l-12 -55h-220l-45 -55q-24 -29 -25 -44.5t23 -45.5q69 -80 66 -142t-76 -121.5t-184 -93.5l-29 58
q149 65 152 131q0 6 -1 12.5t-2 11t-4.5 11t-5.5 10t-6.5 10t-6.5 9t-7 9t-6 7.5q-35 39 -37.5 64t27.5 63l86 106h-256l12 55q48 3 75 6.5t51.5 12.5t36 19t23 34t17 48.5t14.5 70.5l194 1016h-104q-126 0 -173.5 -13t-78.5 -49q-43 -51 -100 -184h-62q60 195 97 364h43
q16 -33 35.5 -42t64.5 -9h770q38 0 58 10t51 41z" />
    <glyph glyph-name="uni0163" unicode="&#x163;" horiz-adv-x="628" 
d="M436 807l-121 -565q-10 -48 -10.5 -76t5.5 -37.5t18 -9.5q25 0 85.5 39.5t98.5 79.5l29 -43q-66 -81 -160 -148l-76 -98q-23 -29 -23.5 -43t21.5 -41q65 -76 62 -135t-73 -115.5t-175 -87.5l-25 55q138 63 141 123q2 29 -36 76q-32 37 -35.5 59.5t24.5 59.5l64 82
q-21 -7 -39 -7q-26 0 -42 23.5t-20.5 83.5t19.5 164l121 561h-152l-6 18l51 62h123l47 194l156 127l18 -12l-71 -309h237l-53 -70z" />
    <glyph glyph-name="Tcaron" unicode="&#x164;" horiz-adv-x="1234" 
d="M1303 1380h43q-25 -141 -48 -358l-61 -6q0 128 -25 182q-14 37 -58 50.5t-161 13.5h-123l-190 -1016q-8 -45 -11.5 -71t1 -49t13.5 -33.5t33.5 -19t52.5 -12t79 -6.5l-12 -55h-557l12 55q48 3 75 6.5t51.5 12.5t36 19t23 34t17 48.5t14.5 70.5l194 1016h-104
q-126 0 -173.5 -13t-78.5 -49q-43 -51 -100 -184h-62q60 195 97 364h43q16 -33 35.5 -42t64.5 -9h770q38 0 58 10t51 41zM1081 1665l29 -45q-175 -116 -279 -213h-51q-87 105 -211 213l39 45q87 -40 217 -119q149 79 256 119z" />
    <glyph glyph-name="tcaron" unicode="&#x165;" horiz-adv-x="628" 
d="M692 887l-53 -70l-203 -10l-121 -565q-10 -48 -10.5 -76t5.5 -37.5t18 -9.5q25 0 85.5 39.5t98.5 79.5l29 -43q-64 -77 -160.5 -148.5t-169.5 -71.5q-26 0 -42 23.5t-20.5 83.5t19.5 164l121 561h-152l-6 18l51 62h123l47 194l156 127l18 -12l-71 -309h237zM739 1376
q44 0 73.5 -36.5t29.5 -94.5q0 -87 -59.5 -144.5t-145.5 -82.5l-23 51q56 28 85.5 56t29.5 65q0 45 -49 70q-18 6 -18 40q0 30 23 53t54 23z" />
    <glyph glyph-name="Tbar" unicode="&#x166;" horiz-adv-x="1226" 
d="M1303 1380h40q-22 -126 -47 -358l-63 -6q0 125 -27 186q-15 37 -60 48.5t-161 11.5h-117l-102 -545h297l-19 -78h-292l-74 -395q-9 -45 -12.5 -71.5t1.5 -49t13.5 -32.5t35 -18.5t53 -11.5t79.5 -6l-14 -55h-555l12 55q48 3 74 6t51 12t36 18.5t23 33t18 48t15 71.5
l76 395h-275l21 78h268l102 545h-88q-127 0 -181.5 -13t-82.5 -47q-51 -60 -102 -186h-64q64 206 99 364h38q16 -33 36 -42t65 -9h774q38 0 58 10t51 41z" />
    <glyph glyph-name="tbar" unicode="&#x167;" horiz-adv-x="632" 
d="M702 887l-53 -70l-205 -10l-59 -275h201l-27 -73h-190l-45 -217q-28 -123 12 -123q25 0 83.5 40t96.5 81l31 -47q-65 -76 -161 -147t-167 -71q-26 0 -42 23.5t-20.5 83.5t19.5 164l45 213h-147l26 73h138l57 275h-152l-6 18l51 62h127l47 194l156 127l21 -12l-76 -309
h239z" />
    <glyph glyph-name="Utilde" unicode="&#x168;" horiz-adv-x="1447" 
d="M1583 1329l-12 -53q-97 -6 -130.5 -29t-49.5 -84q-37 -133 -82 -368l-31 -158q-38 -184 -93 -314t-151 -219q-144 -135 -348 -135q-196 0 -315 111q-156 146 -92 495l98 519q6 33 9.5 53t4 40t-1.5 30t-10.5 21t-18 15.5t-30 9.5t-40 7.5t-54.5 5.5l12 53h508l-13 -53
q-45 -5 -67 -7.5t-46 -11.5t-33 -18t-21 -31.5t-17 -46.5t-14 -69l-94 -500q-24 -141 -15 -238.5t52.5 -159t104.5 -89t140 -27.5q183 0 293.5 138.5t169.5 436.5l29 142q48 251 55 368q3 62 -32.5 83.5t-147.5 29.5l12 53h471zM1174 1622l51 -33q-32 -89 -75.5 -126.5
t-88.5 -37.5q-9 0 -18 1t-20 4.5t-17.5 5.5t-20.5 8t-19 8t-22.5 10.5t-21.5 10.5q-58 24 -84 24q-53 0 -99 -90l-49 37q34 88 77 126t87 38q40 0 121 -37q6 -2 20 -8.5t19.5 -8.5l16.5 -6t17.5 -5.5t14.5 -3t16 -1.5q48 0 95 84z" />
    <glyph glyph-name="utilde" unicode="&#x169;" horiz-adv-x="1091" 
d="M1008 233l26 -49q-72 -87 -160 -148t-137 -61q-80 0 -30 218q13 58 38 180h-4q-165 -220 -329 -334q-89 -64 -166 -64q-24 0 -42 10.5t-32.5 36.5t-13.5 81t20 133q56 237 111 471q16 69 -6 69q-20 0 -144 -98l-22 49q86 86 172 139.5t129 53.5q36 0 41 -38t-19 -141
q-13 -55 -35 -154t-41 -181.5t-36 -155.5q-31 -135 24 -135q79 0 217 147.5t207 276.5q29 117 74 327l141 54h23q-96 -377 -160 -713q-15 -80 6 -80q15 0 62 33t86 73zM920 1270l49 -25q-70 -174 -166 -174q-11 0 -23 2t-20 4t-23 8.5t-21 9t-25.5 11.5t-24.5 12
q-55 25 -86 25q-48 0 -99 -88l-45 30q34 88 78 129t86 41q40 0 119 -36q79 -33 108 -33q42 0 93 84z" />
    <glyph glyph-name="Umacron" unicode="&#x16a;" horiz-adv-x="1447" 
d="M1583 1329l-12 -53q-97 -6 -130.5 -29t-49.5 -84q-37 -133 -82 -368l-31 -158q-38 -184 -93 -314t-151 -219q-144 -135 -348 -135q-196 0 -315 111q-156 146 -92 495l98 519q6 33 9.5 53t4 40t-1.5 30t-10.5 21t-18 15.5t-30 9.5t-40 7.5t-54.5 5.5l12 53h508l-13 -53
q-45 -5 -67 -7.5t-46 -11.5t-33 -18t-21 -31.5t-17 -46.5t-14 -69l-94 -500q-24 -141 -15 -238.5t52.5 -159t104.5 -89t140 -27.5q183 0 293.5 138.5t169.5 436.5l29 142q48 251 55 368q3 62 -32.5 83.5t-147.5 29.5l12 53h471zM1202 1565l-26 -107h-465l28 107h463z" />
    <glyph glyph-name="umacron" unicode="&#x16b;" horiz-adv-x="1091" 
d="M1008 233l26 -49q-72 -87 -160 -148t-137 -61q-80 0 -30 218q13 58 38 180h-4q-165 -220 -329 -334q-89 -64 -166 -64q-24 0 -42 10.5t-32.5 36.5t-13.5 81t20 133q56 237 111 471q16 69 -6 69q-20 0 -144 -98l-22 49q86 86 172 139.5t129 53.5q36 0 41 -38t-19 -141
q-13 -55 -35 -154t-41 -181.5t-36 -155.5q-31 -135 24 -135q79 0 217 147.5t207 276.5q29 117 74 327l141 54h23q-96 -377 -160 -713q-15 -80 6 -80q15 0 62 33t86 73zM913 1225l-24 -105h-459l27 105h456z" />
    <glyph glyph-name="Ubreve" unicode="&#x16c;" horiz-adv-x="1447" 
d="M1583 1329l-12 -53q-97 -6 -130.5 -29t-49.5 -84q-37 -133 -82 -368l-31 -158q-38 -184 -93 -314t-151 -219q-144 -135 -348 -135q-196 0 -315 111q-156 146 -92 495l98 519q6 33 9.5 53t4 40t-1.5 30t-10.5 21t-18 15.5t-30 9.5t-40 7.5t-54.5 5.5l12 53h508l-13 -53
q-45 -5 -67 -7.5t-46 -11.5t-33 -18t-21 -31.5t-17 -46.5t-14 -69l-94 -500q-24 -141 -15 -238.5t52.5 -159t104.5 -89t140 -27.5q183 0 293.5 138.5t169.5 436.5l29 142q48 251 55 368q3 62 -32.5 83.5t-147.5 29.5l12 53h471zM1145 1634h61q-19 -113 -91.5 -174
t-182.5 -61q-105 0 -161 61.5t-46 173.5h61q8 -52 47.5 -85t112.5 -33q135 0 199 118z" />
    <glyph glyph-name="ubreve" unicode="&#x16d;" horiz-adv-x="1091" 
d="M1008 233l26 -49q-72 -87 -160 -148t-137 -61q-80 0 -30 218q13 58 38 180h-4q-165 -220 -329 -334q-89 -64 -166 -64q-24 0 -42 10.5t-32.5 36.5t-13.5 81t20 133q56 237 111 471q16 69 -6 69q-20 0 -144 -98l-22 49q86 86 172 139.5t129 53.5q36 0 41 -38t-19 -141
q-13 -55 -35 -154t-41 -181.5t-36 -155.5q-31 -135 24 -135q79 0 217 147.5t207 276.5q29 117 74 327l141 54h23q-96 -377 -160 -713q-15 -80 6 -80q15 0 62 33t86 73zM901 1315h53q-12 -74 -39 -128t-65 -83.5t-79 -43t-87 -13.5q-47 0 -84 13t-66.5 44t-37 82.5t3.5 128.5
h51q3 -73 42 -112.5t107 -39.5q67 0 120.5 39.5t80.5 112.5z" />
    <glyph glyph-name="Uring" unicode="&#x16e;" horiz-adv-x="1447" 
d="M1583 1329l-12 -53q-97 -6 -130.5 -29t-49.5 -84q-37 -133 -82 -368l-31 -158q-38 -184 -93 -314t-151 -219q-144 -135 -348 -135q-196 0 -315 111q-156 146 -92 495l98 519q6 33 9.5 53t4 40t-1.5 30t-10.5 21t-18 15.5t-30 9.5t-40 7.5t-54.5 5.5l12 53h508l-13 -53
q-45 -5 -67 -7.5t-46 -11.5t-33 -18t-21 -31.5t-17 -46.5t-14 -69l-94 -500q-24 -141 -15 -238.5t52.5 -159t104.5 -89t140 -27.5q183 0 293.5 138.5t169.5 436.5l29 142q48 251 55 368q3 62 -32.5 83.5t-147.5 29.5l12 53h471zM1139 1554q-1 -79 -59.5 -127.5t-135.5 -48.5
q-72 0 -118.5 46t-43.5 116q1 82 58.5 133t134.5 51q70 0 118.5 -47t45.5 -123zM1047 1559q2 43 -19 70.5t-59 27.5q-41 0 -67 -31.5t-28 -81.5q-2 -42 19.5 -69t58.5 -27q39 0 66.5 31t28.5 80z" />
    <glyph glyph-name="uring" unicode="&#x16f;" horiz-adv-x="1091" 
d="M1008 233l26 -49q-72 -87 -160 -148t-137 -61q-80 0 -30 218q13 58 38 180h-4q-165 -220 -329 -334q-89 -64 -166 -64q-24 0 -42 10.5t-32.5 36.5t-13.5 81t20 133q56 237 111 471q16 69 -6 69q-20 0 -144 -98l-22 49q86 86 172 139.5t129 53.5q36 0 41 -38t-19 -141
q-13 -55 -35 -154t-41 -181.5t-36 -155.5q-31 -135 24 -135q79 0 217 147.5t207 276.5q29 117 74 327l141 54h23q-96 -377 -160 -713q-15 -80 6 -80q15 0 62 33t86 73zM709 1362q71 0 119.5 -48t45.5 -128q-1 -78 -60.5 -127t-137.5 -49q-75 0 -122 46.5t-44 117.5
q3 84 62.5 136t136.5 52zM700 1292q-39 0 -67 -31.5t-29 -80.5q-2 -45 19.5 -74t60.5 -29t67 32t29 81q2 45 -19.5 73.5t-60.5 28.5z" />
    <glyph glyph-name="Uhungarumlaut" unicode="&#x170;" horiz-adv-x="1447" 
d="M1583 1329l-12 -53q-97 -6 -130.5 -29t-49.5 -84q-37 -133 -82 -368l-31 -158q-38 -184 -93 -314t-151 -219q-144 -135 -348 -135q-196 0 -315 111q-156 146 -92 495l98 519q6 33 9.5 53t4 40t-1.5 30t-10.5 21t-18 15.5t-30 9.5t-40 7.5t-54.5 5.5l12 53h508l-13 -53
q-45 -5 -67 -7.5t-46 -11.5t-33 -18t-21 -31.5t-17 -46.5t-14 -69l-94 -500q-24 -141 -15 -238.5t52.5 -159t104.5 -89t140 -27.5q183 0 293.5 138.5t169.5 436.5l29 142q48 251 55 368q3 62 -32.5 83.5t-147.5 29.5l12 53h471zM999 1649v-29l-215 -219l-49 31
q68 128 129 254q23 6 72 -8t63 -29zM1278 1649v-29l-215 -219l-49 31q70 132 129 254q23 6 71.5 -9t63.5 -28z" />
    <glyph glyph-name="uhungarumlaut" unicode="&#x171;" horiz-adv-x="1091" 
d="M1008 233l26 -49q-72 -87 -160 -148t-137 -61q-80 0 -30 218q13 58 38 180h-4q-165 -220 -329 -334q-89 -64 -166 -64q-24 0 -42 10.5t-32.5 36.5t-13.5 81t20 133q56 237 111 471q16 69 -6 69q-20 0 -144 -98l-22 49q86 86 172 139.5t129 53.5q36 0 41 -38t-19 -141
q-13 -55 -35 -154t-41 -181.5t-36 -155.5q-31 -135 24 -135q79 0 217 147.5t207 276.5q29 117 74 327l141 54h23q-96 -377 -160 -713q-15 -80 6 -80q15 0 62 33t86 73zM750 1327l-236 -323l-53 32q117 269 129 305q21 6 77.5 9.5t75.5 -0.5zM1022 1327l-234 -323l-51 32
q97 223 127 305q21 6 78 9.5t76 -0.5z" />
    <glyph glyph-name="Uogonek" unicode="&#x172;" horiz-adv-x="1447" 
d="M1583 1329l-12 -53q-97 -6 -130.5 -29t-49.5 -84q-35 -122 -82 -368l-31 -158q-36 -182 -92 -313t-152 -220q-98 -91 -231 -120q-197 -156 -197 -293q0 -32 24 -53t62 -21q42 0 94 23l17 -56l-111 -59q-47 -21 -84 -21q-64 0 -104.5 37.5t-40.5 102.5q0 152 229 325v2
q-83 -2 -172 24.5t-151 84.5q-154 148 -90 495l98 519q6 33 9.5 53t4 40t-1.5 30t-10.5 21t-18 15.5t-30 9.5t-40 7.5t-54.5 5.5l12 53h508l-13 -53q-45 -5 -67 -7.5t-46 -11.5t-33 -18t-21 -31.5t-17 -46.5t-14 -69l-94 -500q-24 -141 -15 -238.5t52.5 -159t104.5 -89
t140 -27.5q182 0 292 138t169 437l29 142q47 233 55 368q3 63 -32 84t-148 29l14 53h471z" />
    <glyph glyph-name="uogonek" unicode="&#x173;" horiz-adv-x="1089" 
d="M1008 233l26 -49q-131 -155 -252 -196q-85 -67 -136.5 -144.5t-51.5 -148.5q0 -31 20 -49.5t54 -20.5q35 0 96 27l14 -55l-108 -62q-42 -22 -86 -22q-57 0 -94 36t-37 97q0 80 71.5 177t180.5 179q-33 49 2 191q8 38 20.5 96t17.5 84h-4q-153 -209 -327 -334
q-86 -64 -168 -64q-24 0 -42 10.5t-32.5 36.5t-13.5 81t20 133q56 237 111 471q16 67 -6 67q-23 0 -144 -96l-22 49q86 86 172 139.5t129 53.5q24 0 33.5 -16.5t7 -55t-18.5 -107.5q-100 -440 -112 -491q-33 -133 24 -133q53 0 140.5 76t164 172.5t119.5 175.5
q32 132 74 325l141 54h23q-104 -410 -162 -713q-15 -80 6 -80q14 0 61.5 32.5t88.5 73.5z" />
    <glyph glyph-name="Wcircumflex" unicode="&#x174;" horiz-adv-x="1943" 
d="M2066 1329l-12 -53q-39 -6 -58.5 -9.5t-42.5 -13t-34 -18.5t-28.5 -32t-31 -47.5t-36.5 -70.5q-94 -177 -523 -1105h-63l-166 1015h-6l-490 -1015h-63l-123 1099q-5 49 -8.5 74.5t-12 50t-16.5 34t-29 18.5t-40.5 12t-59.5 8l13 53h462l-14 -53l-51 -8q-63 -9 -77 -30.5
t-5 -104.5l88 -857h4l485 1029h60l170 -1031h4q18 40 97.5 213t116 254t88.5 201t79 193q30 77 16.5 99.5t-90.5 33.5l-53 8l12 53h438zM1432 1440l-37 -45q-101 42 -219 116q-143 -76 -258 -116l-27 45q153 96 278 213h52q88 -109 211 -213z" />
    <glyph glyph-name="wcircumflex" unicode="&#x175;" horiz-adv-x="1372" 
d="M936 186h4q289 396 289 529q0 46 -21 94q-14 24 0 51q11 25 34.5 42.5t49.5 17.5q39 0 63.5 -32t24.5 -85q0 -33 -13.5 -72t-27 -65.5t-43.5 -77.5q-81 -131 -432 -613h-57q-15 207 -57 639h-5q-99 -165 -391 -639h-53q-2 223 -20 660q-3 74 -10.5 104.5t-22.5 30.5
q-22 0 -121 -104l-35 41q69 92 140.5 152.5t121.5 60.5q35 0 53 -48.5t21 -154.5q6 -246 6 -484h4q37 64 118.5 201.5t145 246.5t117.5 208h51q10 -99 31 -337t35 -366zM1069 1036l-47 -35q-63 70 -143 197q-133 -129 -224 -197l-41 35q182 210 267 334h45q48 -152 143 -334
z" />
    <glyph glyph-name="Ycircumflex" unicode="&#x176;" horiz-adv-x="1251" 
d="M1405 1329l-14 -53q-70 -7 -105 -19.5t-66.5 -40.5t-86.5 -96q-123 -156 -336 -461q-38 -50 -49 -116l-58 -289q-10 -48 -14 -74.5t0.5 -50.5t12.5 -34t33 -19.5t51.5 -12.5t78.5 -8l-12 -55h-547l14 55q47 3 71.5 6t49.5 12t36 19.5t23 35t18.5 51t16.5 75.5l56 276
q10 56 -11 121q-178 468 -182 479q-35 91 -63 112.5t-125 33.5l12 53h475l-14 -53l-72 -10q-52 -7 -62 -24.5t7 -61.5q79 -234 186 -494q235 323 330 481q31 54 21 72.5t-68 26.5l-64 8l15 55h442zM1104 1446l-37 -45q-93 39 -219 119q-158 -85 -258 -119l-27 45
q158 103 279 213h51q88 -109 211 -213z" />
    <glyph glyph-name="ycircumflex" unicode="&#x177;" horiz-adv-x="905" 
d="M489 154h5q140 215 193 318q82 159 81 245q0 43 -23 96q-9 22 5 51q11 23 35.5 39.5t50.5 16.5q34 0 56.5 -31.5t22.5 -81.5q3 -86 -71 -217q-64 -114 -175.5 -287.5t-195.5 -292.5q-220 -317 -369 -481l-213 -55l-16 45q275 179 481 458q-1 118 -20.5 320.5t-42.5 347.5
q-17 127 -43 127q-13 0 -48 -34t-71 -85l-35 47q57 89 124 154.5t118 65.5q42 0 67 -58t37 -182q26 -205 47 -526zM809 1036l-47 -35q-59 65 -146 197q-126 -126 -223 -197l-39 35q182 210 267 334h45q48 -152 143 -334z" />
    <glyph glyph-name="Ydieresis" unicode="&#x178;" horiz-adv-x="1251" 
d="M1405 1329l-14 -53q-70 -7 -105 -19.5t-66.5 -40.5t-86.5 -96q-123 -156 -336 -461q-38 -50 -49 -116l-58 -289q-10 -48 -14 -74.5t0.5 -50.5t12.5 -34t33 -19.5t51.5 -12.5t78.5 -8l-12 -55h-547l14 55q47 3 71.5 6t49.5 12t36 19.5t23 35t18.5 51t16.5 75.5l56 276
q10 56 -11 121q-178 468 -182 479q-35 91 -63 112.5t-125 33.5l12 53h475l-14 -53l-72 -10q-52 -7 -62 -24.5t7 -61.5q79 -234 186 -494q235 323 330 481q31 54 21 72.5t-68 26.5l-64 8l15 55h442zM655 1618q37 0 58.5 -25t21.5 -61q0 -47 -29 -80t-73 -33q-35 0 -58.5 23.5
t-23.5 60.5q0 43 28.5 79t75.5 36zM1036 1618q37 0 57.5 -25t20.5 -61q0 -47 -28.5 -80t-73.5 -33q-34 0 -57 24t-23 60q0 43 28.5 79t75.5 36z" />
    <glyph glyph-name="Zacute" unicode="&#x179;" horiz-adv-x="1204" 
d="M1251 1329l13 -26q-479 -575 -1006 -1221q123 -12 320 -12q162 0 246 12t130 51q64 54 150 227l57 -24q-17 -57 -58.5 -172t-64.5 -164h-1022l-12 31q627 752 1014 1231h-324q-99 0 -155 -8.5t-79.5 -22.5t-45.5 -43q-51 -57 -105 -195l-59 6q59 213 84 381h43
q18 -34 37 -42.5t65 -8.5h772zM1090 1546l-5 -16l-383 -129l-26 49q197 125 330 209q19 -4 49 -46t35 -67z" />
    <glyph glyph-name="zacute" unicode="&#x17a;" horiz-adv-x="856" 
d="M862 948l41 -43q-24 -31 -119 -137q-59 -67 -153 -166t-232.5 -241t-167.5 -173q63 6 156 -32q5 -2 37.5 -13.5t43 -14.5t34 -10t39 -9.5t30.5 -2.5q45 0 94.5 38.5t114.5 136.5l45 -37q-80 -159 -145 -222t-135 -63t-275 98q-84 42 -127 13q-32 -20 -65 -70
q-14 -20 -25 -18q-11 5 -18 14.5t-7 26.5t8.5 39t31.5 54t59 70q68 73 269.5 277t299.5 309q-66 -11 -127 -6q-106 12 -194 12q-65 0 -108.5 -42t-94.5 -132l-51 25q46 106 84 166q75 120 149 120q70 0 217 -24q110 -21 166 -21q53 0 125 78zM838 1354l-318 -348l-47 32
q47 74 109.5 179.5t79.5 138.5q20 7 84 15.5t85 4.5z" />
    <glyph glyph-name="Zdotaccent" unicode="&#x17b;" horiz-adv-x="1204" 
d="M1251 1329l13 -26q-479 -575 -1006 -1221q123 -12 320 -12q162 0 246 12t130 51q64 54 150 227l57 -24q-17 -57 -58.5 -172t-64.5 -164h-1022l-12 31q627 752 1014 1231h-324q-99 0 -155 -8.5t-79.5 -22.5t-45.5 -43q-51 -57 -105 -195l-59 6q59 213 84 381h43
q18 -34 37 -42.5t65 -8.5h772zM788 1640q40 0 62 -26.5t22 -65.5q0 -48 -30.5 -83t-75.5 -35q-37 0 -61.5 25.5t-24.5 64.5q0 44 29.5 82t78.5 38z" />
    <glyph glyph-name="zdotaccent" unicode="&#x17c;" horiz-adv-x="856" 
d="M862 948l41 -43q-24 -31 -119 -137q-59 -67 -153 -166t-232.5 -241t-167.5 -173q63 6 156 -32q5 -2 37.5 -13.5t43 -14.5t34 -10t39 -9.5t30.5 -2.5q45 0 94.5 38.5t114.5 136.5l45 -37q-80 -159 -145 -222t-135 -63t-275 98q-84 42 -127 13q-32 -20 -65 -70
q-14 -20 -25 -18q-11 5 -18 14.5t-7 26.5t8.5 39t31.5 54t59 70q68 73 269.5 277t299.5 309q-66 -11 -127 -6q-106 12 -194 12q-65 0 -108.5 -42t-94.5 -132l-51 25q46 106 84 166q75 120 149 120q70 0 217 -24q110 -21 166 -21q53 0 125 78zM596 1300q39 0 61.5 -26.5
t22.5 -63.5q0 -50 -31 -84t-78 -34q-36 0 -61 25.5t-25 64.5q0 43 31 80.5t80 37.5z" />
    <glyph glyph-name="Zcaron" unicode="&#x17d;" horiz-adv-x="1204" 
d="M1251 1329l13 -26q-479 -575 -1006 -1221q123 -12 320 -12q162 0 246 12t130 51q64 54 150 227l57 -24q-17 -57 -58.5 -172t-64.5 -164h-1022l-12 31q627 752 1014 1231h-324q-99 0 -155 -8.5t-79.5 -22.5t-45.5 -43q-51 -57 -105 -195l-59 6q59 213 84 381h43
q18 -34 37 -42.5t65 -8.5h772zM1044 1667l29 -45q-172 -114 -278 -213h-52q-88 109 -211 213l39 45q80 -36 217 -119q149 79 256 119z" />
    <glyph glyph-name="zcaron" unicode="&#x17e;" horiz-adv-x="856" 
d="M862 948l41 -43q-24 -31 -119 -137q-59 -67 -153 -166t-232.5 -241t-167.5 -173q63 6 156 -32q5 -2 37.5 -13.5t43 -14.5t34 -10t39 -9.5t30.5 -2.5q45 0 94.5 38.5t114.5 136.5l45 -37q-80 -159 -145 -222t-135 -63t-275 98q-84 42 -127 13q-32 -20 -65 -70
q-14 -20 -25 -18q-11 5 -18 14.5t-7 26.5t8.5 39t31.5 54t59 70q68 73 269.5 277t299.5 309q-66 -11 -127 -6q-106 12 -194 12q-65 0 -108.5 -42t-94.5 -132l-51 25q46 106 84 166q75 120 149 120q70 0 217 -24q110 -21 166 -21q53 0 125 78zM786 1378l45 -37
q-166 -188 -266 -331h-45q-49 154 -145 331l51 37q73 -88 141 -196q131 127 219 196z" />
    <glyph glyph-name="longs" unicode="&#x17f;" horiz-adv-x="466" 
d="M709 1458q50 0 85 -29t33 -59q0 -23 -16.5 -48t-38.5 -40q-27 -21 -45 0q-65 68 -127 68q-31 0 -55.5 -21t-50.5 -75.5t-51 -156.5t-50 -255q-88 -538 -117 -676q-50 -232 -105 -356t-142 -211q-120 -125 -234 -125q-45 0 -85.5 28t-39.5 60q0 41 56 86q22 20 43 2
q24 -22 58.5 -36.5t66.5 -14.5q50 0 86 39q71 71 143 512q84 527 90 559q38 219 91 355.5t130 231.5q57 71 134 116.5t141 45.5z" />
    <glyph glyph-name="florin" unicode="&#x192;" horiz-adv-x="976" 
d="M430 758l25 108q55 227 211 357q135 112 241 112q43 0 79.5 -27t35.5 -59q0 -45 -43 -75q-23 -20 -43 0q-68 59 -131 59q-30 0 -50.5 -13.5t-41.5 -41.5q-24 -33 -49.5 -119t-65.5 -301h248l-23 -74h-239l-84 -391q-24 -112 -55.5 -198t-68 -142.5t-69.5 -91.5t-74 -64
q-107 -80 -186 -80q-42 0 -76 26.5t-32 55.5q0 39 47 82q21 17 41 0q57 -53 123 -53q56 0 92 76q43 100 90 348l80 432h-197l21 74h194z" />
    <glyph glyph-name="Ohorn" unicode="&#x1a0;" horiz-adv-x="1449" 
d="M680 -31q-242 0 -393.5 161.5t-151.5 420.5q0 213 96.5 398.5t269.5 299t380 113.5q66 0 131 -14q136 -29 198 -29q72 0 116 22.5t44 51.5q0 20 -13 30.5t-48 16.5q-13 2 -25 12.5t-12 32.5q0 39 35.5 67.5t76.5 28.5q44 0 69.5 -26t25.5 -74q0 -98 -72 -160t-188 -74
q94 -73 150 -194t56 -279q0 -161 -56 -308.5t-153 -257t-237 -174.5t-299 -65zM696 41q99 0 186.5 46t150 122.5t108 174.5t68 203.5t22.5 207.5q0 106 -20.5 193t-63 156t-114.5 107.5t-169 38.5q-116 0 -218 -68t-169.5 -177t-106 -243.5t-38.5 -269.5q0 -141 38 -249.5
t121.5 -175t204.5 -66.5z" />
    <glyph glyph-name="ohorn" unicode="&#x1a1;" horiz-adv-x="962" 
d="M438 57q34 0 66 13q88 37 155.5 187t67.5 339q0 120 -46 183t-120 63q-34 0 -78 -19q-33 -14 -68 -52.5t-70 -100t-57 -158t-22 -207.5q0 -115 45.5 -181.5t126.5 -66.5zM365 -25q-71 0 -124.5 26.5t-84.5 72t-46.5 101t-15.5 120.5q0 191 88.5 339t223.5 220
q125 66 221 66q51 0 92 -13q40 -12 82 -12q59 0 93 21t34 47q0 22 -12 31.5t-50 15.5q-39 11 -39 49q0 40 31.5 67t71.5 27q43 0 69.5 -30t26.5 -85q0 -80 -53.5 -133t-143.5 -74q70 -86 70 -231q0 -137 -57.5 -273.5t-161.5 -222.5q-153 -129 -315 -129z" />
    <glyph glyph-name="Uhorn" unicode="&#x1af;" horiz-adv-x="1447" 
d="M1100 1276l12 53h217q238 0 238 68q0 19 -12 30t-48 17q-37 5 -37 45q0 38 35.5 67t75.5 29q44 0 69 -25.5t25 -74.5q0 -150 -166 -209q-58 -19 -81 -41t-37 -72q-35 -122 -82 -368l-31 -158q-38 -184 -93 -314t-151 -219q-144 -135 -348 -135q-196 0 -315 111
q-156 146 -92 495l98 519q6 33 9.5 53t4 40t-1.5 30t-10.5 21t-18 15.5t-30 9.5t-40 7.5t-54.5 5.5l12 53h508l-13 -53q-45 -5 -67 -7.5t-46 -11.5t-33 -18t-21 -31.5t-17 -46.5t-14 -69l-94 -500q-24 -141 -15 -238.5t52.5 -159t104.5 -89t140 -27.5q183 0 293.5 138.5
t169.5 436.5l29 142q48 251 55 368q3 62 -32.5 83.5t-147.5 29.5z" />
    <glyph glyph-name="uhorn" unicode="&#x1b0;" horiz-adv-x="1091" 
d="M1008 233l26 -49q-72 -87 -160 -148t-137 -61q-80 0 -30 218q13 58 38 180h-4q-165 -220 -329 -334q-89 -64 -166 -64q-24 0 -42 10.5t-32.5 36.5t-13.5 81t20 133q56 237 111 471q16 66 -6 69q-20 0 -144 -98l-22 49q86 86 172 139.5t129 53.5q36 0 41 -38t-19 -141
q-13 -55 -35 -154t-41 -181.5t-36 -155.5q-31 -135 24 -135q79 0 217 147.5t207 276.5q25 103 76 342l66 12q180 34 180 84q0 22 -12 32t-50 17q-39 11 -39 47q0 40 30.5 67t70.5 27q44 0 71 -29.5t27 -84.5q0 -143 -203 -213q-86 -355 -139 -633q-15 -80 6 -80q15 0 62 33
t86 73z" />
    <glyph glyph-name="Aringacute" unicode="&#x1fa;" horiz-adv-x="1359" 
d="M1272 55l-15 -55h-483l14 55q71 7 101 19t38 37.5t-1 68.5q-7 46 -25 147t-27 156h-428q-102 -192 -143 -278q-16 -33 -23.5 -53t-8 -37.5t6 -26.5t26 -16t44.5 -10.5t68 -6.5l-13 -55h-440l14 55q53 7 78 13t53.5 28t50.5 55t60 101l617 1091l63 17l57 -363
q53 -340 131 -764q10 -60 18.5 -88t29.5 -49.5t50 -28t87 -12.5zM862 569l-82 531h-4q-228 -420 -284 -531h370zM1067 1575q-3 -79 -61.5 -127.5t-135.5 -48.5q-72 0 -117.5 45.5t-43.5 114.5q3 83 60 133.5t134 50.5q70 0 117.5 -46t46.5 -122zM973 1577q2 44 -18.5 72
t-59.5 28q-40 0 -66 -32t-26 -80q-2 -44 18.5 -70.5t57.5 -26.5q39 0 66.5 31t27.5 78zM1206 1937l-4 -14l-383 -131l-26 51q263 168 329 209q20 -6 49.5 -47.5t34.5 -67.5z" />
    <glyph glyph-name="aringacute" unicode="&#x1fb;" horiz-adv-x="1003" 
d="M928 238l24 -50q-77 -95 -166 -154t-133 -59q-22 0 -33.5 13.5t-15.5 54t12 113.5l41 194h-4q-111 -157 -264 -282q-115 -93 -190 -93q-46 0 -82.5 59.5t-36.5 172.5q0 156 67 309t179 246q81 68 184.5 113t196.5 45q46 0 127 -15q58 -12 77 -12l7 -8q-71 -273 -142 -666
q-17 -88 4 -88q13 0 59.5 32.5t88.5 74.5zM305 106q38 0 117 71t154 166t110 165q22 79 68 295q-58 28 -138 28q-89 0 -145 -43q-100 -74 -160.5 -230.5t-60.5 -315.5q0 -66 16 -101t39 -35zM705 1362q72 0 121 -48t46 -128q-1 -78 -60.5 -127t-137.5 -49q-76 0 -122.5 46.5
t-43.5 117.5q1 84 61 136t136 52zM698 1292q-40 0 -67.5 -31.5t-28.5 -80.5q-2 -45 19.5 -74t58.5 -29q40 0 68.5 32t29.5 81q2 45 -19.5 73.5t-60.5 28.5zM1014 1755l-318 -348l-47 31q48 75 111.5 181t79.5 138q19 7 83 15.5t87 5.5z" />
    <glyph glyph-name="AEacute" unicode="&#x1fc;" horiz-adv-x="1769" 
d="M1741 1022l-60 -4q-3 127 -28 180q-18 37 -58.5 50.5t-150.5 13.5h-154q-51 0 -63 -11t-23 -67l-94 -498h199q46 0 74.5 1.5t53.5 8.5t38.5 15.5t27.5 28.5t22.5 40t22.5 58h60l-78 -392h-60q1 42 0 63t-7 43t-16 30t-32.5 15.5t-50.5 9t-76 1.5h-192l-60 -321
q-15 -88 -13 -129t24 -60q23 -18 68.5 -23t141.5 -5q115 0 170 13.5t97 53.5q63 58 137 195l57 -21q-5 -11 -57 -143t-70 -168h-960l12 53q48 5 72.5 8t51 12t37.5 19.5t23.5 34t19 50t15.5 73.5l72 358h-359q-204 -298 -274 -424q-38 -65 -29 -87t74 -31l64 -11l-13 -55
h-473l13 55q69 9 103.5 20.5t71.5 43.5t87 100q106 143 227 314t256 364.5t197 280.5q34 46 24 61t-76 23l-108 10l16 57h1041q-7 -69 -35 -307zM631 686h317l115 574q-26 0 -62 -33q-144 -207 -370 -541zM1550 1546l-4 -16l-385 -129l-24 49q263 168 329 209q19 -4 49 -46
t35 -67z" />
    <glyph glyph-name="aeacute" unicode="&#x1fd;" horiz-adv-x="1359" 
d="M1255 260l33 -45q-227 -238 -444 -238q-37 0 -70.5 12.5t-67 42.5t-53.5 90t-20 144q0 29 4 47l-4 2q-48 -64 -115 -131t-129 -114q-46 -39 -103 -66t-93 -27q-43 0 -79 54.5t-36 171.5q0 157 63 311t168 244q78 70 188 116t201 46q41 0 88 -13q31 -4 80 -4l8 -8
l-28 -119l4 -2q65 65 155 105.5t158 40.5q81 0 128.5 -46.5t47.5 -115.5t-50.5 -131t-135.5 -108t-175.5 -79t-189.5 -55q-2 -23 -2 -72q0 -56 13 -102t48.5 -79.5t88.5 -33.5q151 0 319 162zM610 829q-89 0 -137 -30q-87 -57 -147 -197q-78 -172 -78 -356q0 -61 14 -96
t39 -35q32 0 84.5 35t103.5 92q122 133 168 231q21 57 47 166.5t33 161.5q-47 28 -127 28zM1085 831q-59 0 -104 -30q-23 -15 -47 -40.5t-51 -66t-49.5 -103.5t-34.5 -138q142 38 229.5 82.5t122 89.5t35.5 100q0 53 -28 79.5t-73 26.5zM1116 1354l-317 -348l-47 32
q47 73 108.5 178.5t79.5 139.5q20 7 84.5 15.5t85.5 4.5z" />
    <glyph glyph-name="Oslashacute" unicode="&#x1fe;" horiz-adv-x="1449" 
d="M1290 1419l58 -43l-105 -145q87 -77 134.5 -195t47.5 -260q0 -164 -57 -312.5t-155.5 -257.5t-239.5 -173t-301 -64q-166 0 -291 84l-105 -141l-53 49l99 135q-88 78 -137.5 195.5t-49.5 257.5q0 159 57.5 308t156 260t238.5 178t296 67q174 0 301 -88zM408 213l708 967
q-76 110 -248 110q-96 0 -183 -44t-151 -119t-111 -171.5t-71 -203.5t-24 -213q0 -208 80 -326zM1157 1116l-704 -966q90 -109 241 -109q123 0 227.5 69.5t171 179.5t103.5 241t37 260q0 203 -76 325zM1161 1565l-4 -17l-385 -129l-27 49q173 108 330 209q19 -4 50 -46
t36 -66z" />
    <glyph glyph-name="oslashacute" unicode="&#x1ff;" horiz-adv-x="966" 
d="M854 989l51 -39l-80 -106q78 -84 78 -246q0 -130 -59 -267t-160 -225q-64 -56 -153.5 -93.5t-172.5 -37.5q-85 0 -137 37l-80 -108l-47 45l76 104q-74 82 -74 238q0 194 84.5 339t212.5 216q130 74 240 74q87 0 143 -37zM274 190l422 578q-38 72 -131 72q-44 0 -78 -15
q-32 -13 -69 -50t-75 -98t-63 -157t-26 -207q0 -41 20 -123zM729 702l-426 -575q44 -72 123 -72q37 0 76 17q90 34 166 184t75 340q0 62 -14 106zM862 1354l-317 -348l-47 32q47 73 108.5 178.5t79.5 139.5q20 7 84.5 15.5t85.5 4.5z" />
    <glyph glyph-name="uni0218" unicode="&#x218;" horiz-adv-x="958" 
d="M78 399l55 7q10 -65 31 -124t58.5 -116.5t100 -92t142.5 -34.5q110 0 178 72t68 192q0 82 -46 146.5t-145 142.5l-57 45q-38 31 -61 51t-59.5 58.5t-57 72t-36.5 80.5t-16 96q0 160 116 263.5t300 103.5q95 0 195 -35q47 -17 90 -33q-4 -38 -5 -86.5t-0.5 -108.5
t-0.5 -91l-60 -7q-7 63 -21 111.5t-41 91.5t-73.5 66.5t-109.5 23.5q-103 0 -166.5 -70.5t-63.5 -168.5q0 -81 47 -140.5t144 -134.5l61 -45q118 -88 178 -175t60 -200q0 -116 -63 -206.5t-164 -137.5t-220 -47q-112 0 -212 41t-140 86q-1 21 -2.5 123t-3.5 180zM434 -104
q51 0 86 -36.5t35 -95.5q1 -42 -14.5 -78t-40 -61t-58 -44.5t-64.5 -30.5t-65 -19l-16 55q68 24 103.5 51.5t35.5 67.5q0 49 -74 72q-24 3 -24 39q0 35 28 57.5t68 22.5z" />
    <glyph glyph-name="uni0219" unicode="&#x219;" horiz-adv-x="690" 
d="M231 -25q-73 0 -139.5 47t-66.5 101q-3 51 59 86q35 17 51 -6q39 -59 92 -92t105 -33q60 0 97.5 36t37.5 87q0 41 -25 79.5t-94 92.5q-85 65 -131.5 122.5t-46.5 127.5q0 105 106 198q48 42 113.5 70.5t114.5 28.5q65 0 112.5 -36.5t47.5 -78.5q0 -54 -52 -84
q-27 -16 -45 8q-74 92 -159 92q-46 0 -78.5 -31.5t-32.5 -82.5q0 -50 33 -91t100 -92q95 -71 133.5 -123t38.5 -116q0 -75 -58 -148t-144.5 -117.5t-168.5 -44.5zM242 -88q51 0 85.5 -37t34.5 -96q1 -52 -21.5 -94.5t-61 -69.5t-77 -43.5t-81.5 -26.5l-17 56q70 27 105 53
t35 65q0 49 -74 72q-25 7 -25 39q0 35 28.5 58.5t68.5 23.5z" />
    <glyph glyph-name="uni021A" unicode="&#x21a;" horiz-adv-x="1234" 
d="M1303 1380h43q-25 -141 -48 -358l-61 -6q0 128 -25 182q-14 37 -58 50.5t-161 13.5h-123l-190 -1016q-8 -45 -11.5 -71t1 -49t13.5 -33.5t33.5 -19t52.5 -12t79 -6.5l-12 -55h-557l12 55q48 3 75 6.5t51.5 12.5t36 19t23 34t17 48.5t14.5 70.5l194 1016h-104
q-126 0 -173.5 -13t-78.5 -49q-43 -51 -100 -184h-62q60 195 97 364h43q16 -33 35.5 -42t64.5 -9h770q38 0 58 10t51 41zM543 -80q50 0 85 -37t36 -96q0 -52 -22.5 -94t-61 -69t-77 -43.5t-81.5 -26.5l-16 57q68 25 102.5 51t34.5 66q0 49 -72 71q-25 7 -25 39
q0 35 28.5 58.5t68.5 23.5z" />
    <glyph glyph-name="uni021B" unicode="&#x21b;" horiz-adv-x="628" 
d="M692 887l-53 -70l-203 -10l-121 -565q-10 -48 -10.5 -76t5.5 -37.5t18 -9.5q25 0 85.5 39.5t98.5 79.5l29 -43q-64 -77 -160.5 -148.5t-169.5 -71.5q-26 0 -42 23.5t-20.5 83.5t19.5 164l121 561h-152l-6 18l51 62h123l47 194l156 127l18 -12l-71 -309h237zM240 -82
q50 0 84.5 -36t35.5 -95q0 -52 -22.5 -94.5t-60.5 -69.5t-76.5 -43t-81.5 -26l-17 55q69 27 103.5 53.5t34.5 65.5q0 49 -72 71q-25 7 -25 39q0 35 28.5 57.5t68.5 22.5z" />
    <glyph glyph-name="uni021C" unicode="&#x21c;" horiz-adv-x="1013" 
d="M309 555l-20 59q489 159 489 455q0 104 -58 161.5t-149 57.5q-102 0 -174.5 -71.5t-140.5 -221.5l-57 21q25 70 84 270q38 9 107.5 30.5t125 32.5t119.5 11q150 0 241 -72.5t91 -191.5q0 -112 -80.5 -200t-229.5 -175v-4q139 -31 218 -118.5t79 -211.5q0 -125 -72.5 -237
t-194 -192.5t-275 -134.5t-320.5 -75l-117 94l19 43q107 -28 203 -28q103 0 203.5 34t180.5 94.5t129.5 153t49.5 199.5q0 85 -37 147t-91 90.5t-116 28.5q-79 0 -207 -49z" />
    <glyph glyph-name="uni021D" unicode="&#x21d;" horiz-adv-x="745" 
d="M135 219l-12 53q188 82 284.5 170t96.5 203q0 69 -43 111.5t-105 42.5q-60 0 -114.5 -29t-130.5 -94l-29 45q196 199 358 199q101 0 164.5 -63.5t63.5 -154.5q0 -161 -238 -321v-4q104 -21 166.5 -91t62.5 -171q0 -107 -61 -210.5t-159.5 -182t-223 -134t-252.5 -75.5
l-88 73l14 39q62 -10 117 -10q126 0 236 57t176.5 157.5t66.5 219.5q0 99 -53 157t-125 58q-62 0 -172 -45z" />
    <glyph glyph-name="uni0232" unicode="&#x232;" horiz-adv-x="1251" 
d="M1405 1329l-14 -53q-70 -7 -105 -19.5t-66.5 -40.5t-86.5 -96q-123 -156 -336 -461q-38 -50 -49 -116l-58 -289q-10 -48 -14 -74.5t0.5 -50.5t12.5 -34t33 -19.5t51.5 -12.5t78.5 -8l-12 -55h-547l14 55q47 3 71.5 6t49.5 12t36 19.5t23 35t18.5 51t16.5 75.5l56 276
q10 56 -11 121q-178 468 -182 479q-35 91 -63 112.5t-125 33.5l12 53h475l-14 -53l-72 -10q-52 -7 -62 -24.5t7 -61.5q79 -234 186 -494q235 323 330 481q31 54 21 72.5t-68 26.5l-64 8l15 55h442zM1110 1565l-27 -107h-465l27 107h465z" />
    <glyph glyph-name="uni0233" unicode="&#x233;" horiz-adv-x="905" 
d="M489 154h5q140 215 193 318q82 159 81 245q0 43 -23 96q-9 22 5 51q11 23 35.5 39.5t50.5 16.5q34 0 56.5 -31.5t22.5 -81.5q3 -86 -71 -217q-64 -114 -175.5 -287.5t-195.5 -292.5q-220 -317 -369 -481l-213 -55l-16 45q275 179 481 458q-1 118 -20.5 320.5t-42.5 347.5
q-17 127 -43 127q-13 0 -48 -34t-71 -85l-35 47q57 89 124 154.5t118 65.5q42 0 67 -58t37 -182q26 -205 47 -526zM817 1225l-24 -105h-459l26 105h457z" />
    <glyph glyph-name="uni0237" unicode="&#x237;" horiz-adv-x="544" 
d="M139 657l-26 48q89 93 183 154t140 61q33 0 36.5 -52t-19.5 -159q-19 -98 -58.5 -293.5t-56.5 -280.5q-75 -375 -242 -532q-68 -67 -127 -99t-92 -32q-31 0 -59.5 19.5t-28.5 47.5q0 45 49 90q26 19 45 9q60 -33 101 -33q45 0 77.5 51t61.5 168q22 95 44 203t59.5 303
t60.5 313q23 109 7 116q-2 1 -5 1q-14 0 -61.5 -32.5t-88.5 -70.5z" />
    <glyph glyph-name="circumflex" unicode="&#x2c6;" 
d="M764 1036l-47 -35q-59 65 -146 197q-126 -126 -223 -197l-39 35q177 204 266 334h46q48 -152 143 -334z" />
    <glyph glyph-name="caron" unicode="&#x2c7;" 
d="M772 1378l45 -37q-166 -188 -266 -331h-45q-48 149 -146 331l52 37q73 -88 141 -196q131 127 219 196z" />
    <glyph glyph-name="uni02C9" unicode="&#x2c9;" 
d="M774 1225l-24 -105h-459l26 105h457z" />
    </font>
</defs>
</svg>
